Поиск

( free jazz, Ayler Records) [CD] Dennis Gonzalez Yells At Eels, Aakash Mittal - Colorado at Clinton 2011, FLAC (tracks+.cue), lossless

( free jazz, Ayler Records) [CD] Dennis Gonzalez Yells At Eels, Aakash Mittal - Colorado at Clinton 2011, FLAC (tracks+.cue), lossless
Треклист:


Dennis Gonzalez Yells At Eels, Aakash Mittal
Colorado at Clinton 2011
Жанр: free jazz
Год выпуска: 2011
Издатель (лейбл):Ayler Records / aylCD-133
Формат: FLAC (tracks+.cue)
Битрейт аудио: lossless
Продолжительность 58`17
Источник: what.cd, 6060842
Dennis Gonzalez-C trumpet, Bb cornet
Aakash Mittal-alto saxophone
Stefan Gonzalez-drums
Aaron Gonzalez-contrabass

tracks
1. Devil's Slide [for Javier Chavez] 13:20
2. Shadows 5:23
3. Wind Streaks in Syrtis Major 10:06
4. Shades of India 14:10
5. Constellations on the Ground 8:27
6. Dokonori Shiito 6:51


 
.log
X Lossless Decoder version 20130720 (144.0)
XLD extraction logfile from 2013-10-29 04:25:27 +0400
Dennis González Yells At Eels, Aakash Mittal / Colorado at Clinton
Used drive : HL-DT-ST DVDRW GX30N (revision RP09)
Media type : Pressed CD
Ripper mode : XLD Secure Ripper
Disable audio cache : OK for the drive with a cache less than 1375KiB
Make use of C2 pointers : NO
Read offset correction : 6
Max retry count : 100
Gap status : Analyzed, Appended (except HTOA)
TOC of the extracted CD
Track | Start | Length | Start sector | End sector
---------------------------------------------------------
1 | 00:00:00 | 13:20:37 | 0 | 60036
2 | 13:20:37 | 05:22:38 | 60037 | 84224
3 | 18:43:00 | 10:06:01 | 84225 | 129675
4 | 28:49:01 | 14:10:35 | 129676 | 193460
5 | 42:59:36 | 08:26:68 | 193461 | 231478
6 | 51:26:29 | 06:50:66 | 231479 | 262294
AccurateRip Summary
Disc not found in AccurateRip DB.
All Tracks
Album gain : -5.34 dB
Peak : 0.977600
Statistics
Read error : 0
Jitter error (maybe fixed) : 0
Retry sector count : 0
Damaged sector count : 0
Track 01
Filename : /Users/Shared/Grabbed/Dennis Gonzalez Yells At Eels, Aakash Mittal - 2011 - Colorado at Clinton [MP3 320]/01 - Devil's Slide (for Javier Chavez).mp3
/Users/Shared/Grabbed/Dennis Gonzalez Yells At Eels, Aakash Mittal - 2011 - Colorado at Clinton [MP3 V0]/01 - Devil's Slide (for Javier Chavez).mp3
/Users/Shared/Grabbed/Dennis Gonzalez Yells At Eels, Aakash Mittal - 2011 - Colorado at Clinton [FLAC]/01 - Devil's Slide (for Javier Chavez).flac
Pre-gap length : 00:02:00
Track gain : -4.33 dB
Peak : 0.966461
CRC32 hash (test run) : 05DCE42E
CRC32 hash : 05DCE42E
CRC32 hash (skip zero) : 700DA1ED
AccurateRip v1 signature : EC137334
AccurateRip v2 signature : BD34714D
->Track not present in AccurateRip database.
Statistics
Read error : 0
Jitter error (maybe fixed) : 0
Retry sector count : 0
Damaged sector count : 0
Track 02
Filename : /Users/Shared/Grabbed/Dennis Gonzalez Yells At Eels, Aakash Mittal - 2011 - Colorado at Clinton [MP3 320]/02 - Shadows.mp3
/Users/Shared/Grabbed/Dennis Gonzalez Yells At Eels, Aakash Mittal - 2011 - Colorado at Clinton [MP3 V0]/02 - Shadows.mp3
/Users/Shared/Grabbed/Dennis Gonzalez Yells At Eels, Aakash Mittal - 2011 - Colorado at Clinton [FLAC]/02 - Shadows.flac
Pre-gap length : 00:02:00
Track gain : -6.23 dB
Peak : 0.966339
CRC32 hash (test run) : E0A60E69
CRC32 hash : E0A60E69
CRC32 hash (skip zero) : 4E65AFB8
AccurateRip v1 signature : 7A750A36
AccurateRip v2 signature : C1E36355
->Track not present in AccurateRip database.
Statistics
Read error : 0
Jitter error (maybe fixed) : 0
Retry sector count : 0
Damaged sector count : 0
Track 03
Filename : /Users/Shared/Grabbed/Dennis Gonzalez Yells At Eels, Aakash Mittal - 2011 - Colorado at Clinton [MP3 320]/03 - Wind Streaks in Syrtis Major.mp3
/Users/Shared/Grabbed/Dennis Gonzalez Yells At Eels, Aakash Mittal - 2011 - Colorado at Clinton [MP3 V0]/03 - Wind Streaks in Syrtis Major.mp3
/Users/Shared/Grabbed/Dennis Gonzalez Yells At Eels, Aakash Mittal - 2011 - Colorado at Clinton [FLAC]/03 - Wind Streaks in Syrtis Major.flac
Pre-gap length : 00:02:00
Track gain : -4.54 dB
Peak : 0.966461
CRC32 hash (test run) : D04B1D3B
CRC32 hash : D04B1D3B
CRC32 hash (skip zero) : 5A2E4C2F
AccurateRip v1 signature : 817D9C2A
AccurateRip v2 signature : 95B12054
->Track not present in AccurateRip database.
Statistics
Read error : 0
Jitter error (maybe fixed) : 0
Retry sector count : 0
Damaged sector count : 0
Track 04
Filename : /Users/Shared/Grabbed/Dennis Gonzalez Yells At Eels, Aakash Mittal - 2011 - Colorado at Clinton [MP3 320]/04 - Shades of India.mp3
/Users/Shared/Grabbed/Dennis Gonzalez Yells At Eels, Aakash Mittal - 2011 - Colorado at Clinton [MP3 V0]/04 - Shades of India.mp3
/Users/Shared/Grabbed/Dennis Gonzalez Yells At Eels, Aakash Mittal - 2011 - Colorado at Clinton [FLAC]/04 - Shades of India.flac
Pre-gap length : 00:02:00
Track gain : -6.28 dB
Peak : 0.966492
CRC32 hash (test run) : CDCA9483
CRC32 hash : CDCA9483
CRC32 hash (skip zero) : 7C0E78D5
AccurateRip v1 signature : DADBBCC1
AccurateRip v2 signature : DCA2D512
->Track not present in AccurateRip database.
Statistics
Read error : 0
Jitter error (maybe fixed) : 0
Retry sector count : 0
Damaged sector count : 0
Track 05
Filename : /Users/Shared/Grabbed/Dennis Gonzalez Yells At Eels, Aakash Mittal - 2011 - Colorado at Clinton [MP3 320]/05 - Constellations on the Ground (for Chris Whitley).mp3
/Users/Shared/Grabbed/Dennis Gonzalez Yells At Eels, Aakash Mittal - 2011 - Colorado at Clinton [MP3 V0]/05 - Constellations on the Ground (for Chris Whitley).mp3
/Users/Shared/Grabbed/Dennis Gonzalez Yells At Eels, Aakash Mittal - 2011 - Colorado at Clinton [FLAC]/05 - Constellations on the Ground (for Chris Whitley).flac
Pre-gap length : 00:02:00
Track gain : -2.04 dB
Peak : 0.966370
CRC32 hash (test run) : 871A02B0
CRC32 hash : 871A02B0
CRC32 hash (skip zero) : 448A9FB8
AccurateRip v1 signature : A5128BC7
AccurateRip v2 signature : 9AC372DD
->Track not present in AccurateRip database.
Statistics
Read error : 0
Jitter error (maybe fixed) : 0
Retry sector count : 0
Damaged sector count : 0
Track 06
Filename : /Users/Shared/Grabbed/Dennis Gonzalez Yells At Eels, Aakash Mittal - 2011 - Colorado at Clinton [MP3 320]/06 - Dokonori Shiito.mp3
/Users/Shared/Grabbed/Dennis Gonzalez Yells At Eels, Aakash Mittal - 2011 - Colorado at Clinton [MP3 V0]/06 - Dokonori Shiito.mp3
/Users/Shared/Grabbed/Dennis Gonzalez Yells At Eels, Aakash Mittal - 2011 - Colorado at Clinton [FLAC]/06 - Dokonori Shiito.flac
Pre-gap length : 00:02:00
Track gain : -5.85 dB
Peak : 0.977600
CRC32 hash (test run) : 545EEFB7
CRC32 hash : 545EEFB7
CRC32 hash (skip zero) : 853F42B3
AccurateRip v1 signature : 034E86E5
AccurateRip v2 signature : DD5F7745
->Track not present in AccurateRip database.
Statistics
Read error : 0
Jitter error (maybe fixed) : 0
Retry sector count : 0
Damaged sector count : 0
No errors occurred
End of status report
-----BEGIN XLD SIGNATURE-----
bgJQpeeCxb_SefwUFyXmyHJshJcjsXhLRhRBp.nyFGbJvh52wMnFoaUGYCHdi_zjrLNnBBXhGogLaA2rbVju28Ny6_Zbq27yBNe0Pgi
-----END XLD SIGNATURE-----
 
.cue
TITLE "Colorado at Clinton"
PERFORMER "Dennis González Yells At Eels, Aakash Mittal"
REM GENRE "Free Jazz"
REM DATE "2011"
REM DISCNUMBER 1
REM TOTALDISCS 1
REM DISCID 440DA906
REM REPLAYGAIN_ALBUM_GAIN -5.34 dB
REM REPLAYGAIN_ALBUM_PEAK 0.977600
FILE "01 - Devil's Slide (for Javier Chavez).flac" WAVE
TRACK 01 AUDIO
TITLE "Devil's Slide (for Javier Chavez)"
PERFORMER "Dennis González Yells At Eels, Aakash Mittal"
REM REPLAYGAIN_TRACK_GAIN -4.33 dB
REM REPLAYGAIN_TRACK_PEAK 0.966461
INDEX 01 00:00:00
TRACK 02 AUDIO
TITLE "Shadows"
PERFORMER "Dennis González Yells At Eels, Aakash Mittal"
REM REPLAYGAIN_TRACK_GAIN -6.23 dB
REM REPLAYGAIN_TRACK_PEAK 0.966339
INDEX 00 13:18:37
FILE "02 - Shadows.flac" WAVE
INDEX 01 00:00:00
TRACK 03 AUDIO
TITLE "Wind Streaks in Syrtis Major"
PERFORMER "Dennis González Yells At Eels, Aakash Mittal"
REM REPLAYGAIN_TRACK_GAIN -4.54 dB
REM REPLAYGAIN_TRACK_PEAK 0.966461
INDEX 00 05:20:38
FILE "03 - Wind Streaks in Syrtis Major.flac" WAVE
INDEX 01 00:00:00
TRACK 04 AUDIO
TITLE "Shades of India"
PERFORMER "Dennis González Yells At Eels, Aakash Mittal"
REM REPLAYGAIN_TRACK_GAIN -6.28 dB
REM REPLAYGAIN_TRACK_PEAK 0.966492
INDEX 00 10:04:01
FILE "04 - Shades of India.flac" WAVE
INDEX 01 00:00:00
TRACK 05 AUDIO
TITLE "Constellations on the Ground (for Chris Whitley)"
PERFORMER "Dennis González Yells At Eels, Aakash Mittal"
REM REPLAYGAIN_TRACK_GAIN -2.04 dB
REM REPLAYGAIN_TRACK_PEAK 0.966370
INDEX 00 14:08:35
FILE "05 - Constellations on the Ground (for Chris Whitley).flac" WAVE
INDEX 01 00:00:00
TRACK 06 AUDIO
TITLE "Dokonori Shiito"
PERFORMER "Dennis González Yells At Eels, Aakash Mittal"
REM REPLAYGAIN_TRACK_GAIN -5.85 dB
REM REPLAYGAIN_TRACK_PEAK 0.977600
INDEX 00 08:24:68
FILE "06 - Dokonori Shiito.flac" WAVE
INDEX 01 00:00:00

другие релизы
По всем вопросам пишите личное сообщение пользователю M0p94ok.
00:57
117
Нет комментариев. Ваш будет первым!