Поиск

(Free Jazz, Avantgarde, Free Improvisation) [CD] Fred Frith/John Zorn Duo - 50th Birthday Celebration Volume 5 - 2004, FLAC (tracks+.cue), lossless

(Free Jazz, Avantgarde, Free Improvisation) [CD] Fred Frith/John Zorn Duo - 50th Birthday Celebration Volume 5 - 2004, FLAC (tracks+.cue), lossless
Треклист:
Fred Frith/John Zorn Duo / 50th Birthday Celebration Volume 5
Жанр: Free Jazz, Avantgarde, Free Improvisation
Носитель: CD
Страна-производитель диска (релиза): USA
Год издания: 2004
Издатель (лейбл): Tzadik
Номер по каталогу: TZ 5005
Страна исполнителя (группы): USA, UK
Аудиокодек: FLAC (*.flac)
Тип рипа: tracks+.cue
Битрейт аудио: lossless
Продолжительность: 54:17
Источник (релизер): собственный рип
Наличие сканов в содержимом раздачи: да
Треклист:
1. Off Topic (7:29)
2. Alecto (3:56)
3. Sowers Of Discord (3:54)
4. Four Corners (8:14)
5. Level Six Jumping (4:33)
6. Cruel Abstraction (6:25)
7. Eumenides Outside The Window (6:54)
8. Nine-Part Invention (4:37)
9. Cord Trouble And Tuning (1:38)
10. Astrologers And Magicians (6:32)
 
Лог создания рипа
X Lossless Decoder version 20160920 (149.2)
XLD extraction logfile from 2016-11-25 12:22:55 +0300
John Zorn / 50th Birthday Celebration Volume 5
Used drive : PIONEER DVD-RW DVR-112D (revision BC14)
Media type : Pressed CD
Ripper mode : XLD Secure Ripper
Disable audio cache : OK for the drive with a cache less than 1375KiB
Make use of C2 pointers : NO
Read offset correction : 48
Max retry count : 20
Gap status : Analyzed, Appended (except HTOA)
TOC of the extracted CD
Track | Start | Length | Start sector | End sector
---------------------------------------------------------
1 | 00:00:00 | 07:29:40 | 0 | 33714
2 | 07:29:40 | 03:56:47 | 33715 | 51461
3 | 11:26:12 | 03:54:45 | 51462 | 69056
4 | 15:20:57 | 08:14:09 | 69057 | 106115
5 | 23:34:66 | 04:33:45 | 106116 | 126635
6 | 28:08:36 | 06:25:68 | 126636 | 155578
7 | 34:34:29 | 06:54:57 | 155579 | 186685
8 | 41:29:11 | 04:37:36 | 186686 | 207496
9 | 46:06:47 | 01:38:63 | 207497 | 214909
10 | 47:45:35 | 06:31:63 | 214910 | 244297
AccurateRip Summary (DiscID: 00154cf4-00a8fd11-980cb90a)
Track 01 : OK (v2, confidence 9/9)
Track 02 : OK (v2, confidence 9/9)
Track 03 : OK (v2, confidence 9/9)
Track 04 : OK (v2, confidence 9/9)
Track 05 : OK (v2, confidence 8/8)
Track 06 : OK (v2, confidence 9/9)
Track 07 : OK (v2, confidence 9/9)
Track 08 : OK (v2, confidence 9/9)
Track 09 : OK (v2, confidence 9/9)
Track 10 : OK (v2, confidence 9/9)
->All tracks accurately ripped.
All Tracks
Album gain : -10.28 dB
Peak : 1.000000
Statistics
Read error : 0
Jitter error (maybe fixed) : 0
Retry sector count : 0
Damaged sector count : 0
Track 01
Filename : /Volumes/MEM3/_Torrents/_Rip/John Zorn & Fred Frith - 50th Birthday Celebration Volume 5 (2004) [FLAC]/01 - Off Topic.flac
Pre-gap length : 00:02:00
Track gain : -10.86 dB
Peak : 1.000000
CRC32 hash (test run) : EEC24676
CRC32 hash : EEC24676
CRC32 hash (skip zero) : 87C00C49
AccurateRip v1 signature : 1BAD8FDE
AccurateRip v2 signature : D4E76906
->Accurately ripped (v2, confidence 9/9)
Statistics
Read error : 0
Jitter error (maybe fixed) : 0
Retry sector count : 0
Damaged sector count : 0
Track 02
Filename : /Volumes/MEM3/_Torrents/_Rip/John Zorn & Fred Frith - 50th Birthday Celebration Volume 5 (2004) [FLAC]/02 - Alecto.flac
Track gain : -8.54 dB
Peak : 1.000000
CRC32 hash (test run) : AE1C3E40
CRC32 hash : AE1C3E40
CRC32 hash (skip zero) : E06E5050
AccurateRip v1 signature : B4248978
AccurateRip v2 signature : 31585CE9
->Accurately ripped (v2, confidence 9/9)
Statistics
Read error : 0
Jitter error (maybe fixed) : 0
Retry sector count : 0
Damaged sector count : 0
Track 03
Filename : /Volumes/MEM3/_Torrents/_Rip/John Zorn & Fred Frith - 50th Birthday Celebration Volume 5 (2004) [FLAC]/03 - Sowers Of Discord.flac
Track gain : -8.78 dB
Peak : 1.000000
CRC32 hash (test run) : 61B044F9
CRC32 hash : 61B044F9
CRC32 hash (skip zero) : BEC445C5
AccurateRip v1 signature : B8ED16A5
AccurateRip v2 signature : 5A136E7E
->Accurately ripped (v2, confidence 9/9)
Statistics
Read error : 0
Jitter error (maybe fixed) : 0
Retry sector count : 0
Damaged sector count : 0
Track 04
Filename : /Volumes/MEM3/_Torrents/_Rip/John Zorn & Fred Frith - 50th Birthday Celebration Volume 5 (2004) [FLAC]/04 - Four Corners.flac
Track gain : -7.43 dB
Peak : 1.000000
CRC32 hash (test run) : 44030A41
CRC32 hash : 44030A41
CRC32 hash (skip zero) : 0A908B33
AccurateRip v1 signature : 520681C7
AccurateRip v2 signature : B08006EE
->Accurately ripped (v2, confidence 9/9)
Statistics
Read error : 0
Jitter error (maybe fixed) : 0
Retry sector count : 0
Damaged sector count : 0
Track 05
Filename : /Volumes/MEM3/_Torrents/_Rip/John Zorn & Fred Frith - 50th Birthday Celebration Volume 5 (2004) [FLAC]/05 - Level Six Jumping.flac
Track gain : -12.36 dB
Peak : 1.000000
CRC32 hash (test run) : 309AF496
CRC32 hash : 309AF496
CRC32 hash (skip zero) : BAF5E0C5
AccurateRip v1 signature : 5E5A7D8A
AccurateRip v2 signature : E747ADF9
->Accurately ripped (v2, confidence 8/8)
Statistics
Read error : 0
Jitter error (maybe fixed) : 0
Retry sector count : 0
Damaged sector count : 0
Track 06
Filename : /Volumes/MEM3/_Torrents/_Rip/John Zorn & Fred Frith - 50th Birthday Celebration Volume 5 (2004) [FLAC]/06 - Cruel Abstraction.flac
Track gain : -9.39 dB
Peak : 1.000000
CRC32 hash (test run) : F930F5C4
CRC32 hash : F930F5C4
CRC32 hash (skip zero) : 19B4DB8E
AccurateRip v1 signature : B8280A41
AccurateRip v2 signature : CB919A3B
->Accurately ripped (v2, confidence 9/9)
Statistics
Read error : 0
Jitter error (maybe fixed) : 0
Retry sector count : 0
Damaged sector count : 0
Track 07
Filename : /Volumes/MEM3/_Torrents/_Rip/John Zorn & Fred Frith - 50th Birthday Celebration Volume 5 (2004) [FLAC]/07 - Eumenides Outside The Window.flac
Track gain : -9.05 dB
Peak : 1.000000
CRC32 hash (test run) : 26D74CE6
CRC32 hash : 26D74CE6
CRC32 hash (skip zero) : 2F387C63
AccurateRip v1 signature : E6E36F79
AccurateRip v2 signature : 3624878B
->Accurately ripped (v2, confidence 9/9)
Statistics
Read error : 0
Jitter error (maybe fixed) : 0
Retry sector count : 0
Damaged sector count : 0
Track 08
Filename : /Volumes/MEM3/_Torrents/_Rip/John Zorn & Fred Frith - 50th Birthday Celebration Volume 5 (2004) [FLAC]/08 - Nine-part Invention.flac
Track gain : -9.68 dB
Peak : 1.000000
CRC32 hash (test run) : C8998AB6
CRC32 hash : C8998AB6
CRC32 hash (skip zero) : 7FEDC4DF
AccurateRip v1 signature : E9670F4C
AccurateRip v2 signature : 4887940A
->Accurately ripped (v2, confidence 9/9)
Statistics
Read error : 0
Jitter error (maybe fixed) : 0
Retry sector count : 0
Damaged sector count : 0
Track 09
Filename : /Volumes/MEM3/_Torrents/_Rip/John Zorn & Fred Frith - 50th Birthday Celebration Volume 5 (2004) [FLAC]/09 - Cord Trouble & Tuning.flac
Track gain : 2.72 dB
Peak : 1.000000
CRC32 hash (test run) : 047F69A7
CRC32 hash : 047F69A7
CRC32 hash (skip zero) : 678C48CE
AccurateRip v1 signature : A63587E7
AccurateRip v2 signature : 5476E871
->Accurately ripped (v2, confidence 9/9)
Statistics
Read error : 0
Jitter error (maybe fixed) : 0
Retry sector count : 0
Damaged sector count : 0
Track 10
Filename : /Volumes/MEM3/_Torrents/_Rip/John Zorn & Fred Frith - 50th Birthday Celebration Volume 5 (2004) [FLAC]/10 - Astrologers & Magicians.flac
Track gain : -11.51 dB
Peak : 1.000000
CRC32 hash (test run) : 73F5766F
CRC32 hash : 73F5766F
CRC32 hash (skip zero) : 852F807F
AccurateRip v1 signature : 93C17C42
AccurateRip v2 signature : A7DA8F25
->Accurately ripped (v2, confidence 9/9)
Statistics
Read error : 0
Jitter error (maybe fixed) : 0
Retry sector count : 0
Damaged sector count : 0
No errors occurred
End of status report
-----BEGIN XLD SIGNATURE-----
q1Qx5Xzbbqz8FwJH5LQ1ND7zWY6VJkVs7jLDs118luY_wljFvbaWXQwI5mFXetDGkym7EfXaOUb4tMLvV5G3J2Zn.9IxZl0_1tlCISS
-----END XLD SIGNATURE-----
 
Содержание индексной карты (.CUE)
TITLE "50th Birthday Celebration Volume 5"
PERFORMER "John Zorn"
REM GENRE "Jazz"
REM DATE "2004"
REM DISCNUMBER 1
REM TOTALDISCS 1
REM DISCID 980CB90A
REM REPLAYGAIN_ALBUM_GAIN -10.28 dB
REM REPLAYGAIN_ALBUM_PEAK 1.000000
FILE "01 - Off Topic.wav" WAVE
TRACK 01 AUDIO
TITLE "Off Topic"
PERFORMER "John Zorn & Fred Frith"
SONGWRITER "John Zorn, Fred Frith"
REM REPLAYGAIN_TRACK_GAIN -10.86 dB
REM REPLAYGAIN_TRACK_PEAK 1.000000
INDEX 01 00:00:00
FILE "02 - Alecto.wav" WAVE
TRACK 02 AUDIO
TITLE "Alecto"
PERFORMER "John Zorn & Fred Frith"
SONGWRITER "John Zorn, Fred Frith"
REM REPLAYGAIN_TRACK_GAIN -8.54 dB
REM REPLAYGAIN_TRACK_PEAK 1.000000
INDEX 01 00:00:00
FILE "03 - Sowers Of Discord.wav" WAVE
TRACK 03 AUDIO
TITLE "Sowers Of Discord"
PERFORMER "John Zorn & Fred Frith"
SONGWRITER "John Zorn, Fred Frith"
REM REPLAYGAIN_TRACK_GAIN -8.78 dB
REM REPLAYGAIN_TRACK_PEAK 1.000000
INDEX 01 00:00:00
FILE "04 - Four Corners.wav" WAVE
TRACK 04 AUDIO
TITLE "Four Corners"
PERFORMER "John Zorn & Fred Frith"
SONGWRITER "John Zorn, Fred Frith"
REM REPLAYGAIN_TRACK_GAIN -7.43 dB
REM REPLAYGAIN_TRACK_PEAK 1.000000
INDEX 01 00:00:00
FILE "05 - Level Six Jumping.wav" WAVE
TRACK 05 AUDIO
TITLE "Level Six Jumping"
PERFORMER "John Zorn & Fred Frith"
SONGWRITER "John Zorn, Fred Frith"
REM REPLAYGAIN_TRACK_GAIN -12.36 dB
REM REPLAYGAIN_TRACK_PEAK 1.000000
INDEX 01 00:00:00
FILE "06 - Cruel Abstraction.wav" WAVE
TRACK 06 AUDIO
TITLE "Cruel Abstraction"
PERFORMER "John Zorn & Fred Frith"
SONGWRITER "John Zorn, Fred Frith"
REM REPLAYGAIN_TRACK_GAIN -9.39 dB
REM REPLAYGAIN_TRACK_PEAK 1.000000
INDEX 01 00:00:00
FILE "07 - Eumenides Outside The Window.wav" WAVE
TRACK 07 AUDIO
TITLE "Eumenides Outside The Window"
PERFORMER "John Zorn & Fred Frith"
SONGWRITER "John Zorn, Fred Frith"
REM REPLAYGAIN_TRACK_GAIN -9.05 dB
REM REPLAYGAIN_TRACK_PEAK 1.000000
INDEX 01 00:00:00
FILE "08 - Nine-part Invention.wav" WAVE
TRACK 08 AUDIO
TITLE "Nine-part Invention"
PERFORMER "John Zorn & Fred Frith"
SONGWRITER "John Zorn, Fred Frith"
REM REPLAYGAIN_TRACK_GAIN -9.68 dB
REM REPLAYGAIN_TRACK_PEAK 1.000000
INDEX 01 00:00:00
FILE "09 - Cord Trouble & Tuning.wav" WAVE
TRACK 09 AUDIO
TITLE "Cord Trouble & Tuning"
PERFORMER "John Zorn & Fred Frith"
SONGWRITER "John Zorn, Fred Frith"
REM REPLAYGAIN_TRACK_GAIN 2.72 dB
REM REPLAYGAIN_TRACK_PEAK 1.000000
INDEX 01 00:00:00
FILE "10 - Astrologers & Magicians.wav" WAVE
TRACK 10 AUDIO
TITLE "Astrologers & Magicians"
PERFORMER "John Zorn & Fred Frith"
SONGWRITER "John Zorn, Fred Frith"
REM REPLAYGAIN_TRACK_GAIN -11.51 dB
REM REPLAYGAIN_TRACK_PEAK 1.000000
INDEX 01 00:00:00
 
Об альбоме (сборнике)
Design – Chippy (Heung-Heung Chin)*
Executive-Producer [Associate] – Kazunori Sugiyama
Mastered By – Scott Hull
Music By – Fred Frith And John Zorn
Producer – John Zorn
Recorded By – Daniel Goldaracena
Recorded live at Tonic, New York City on September 15, 2003 8 p.m.
 
Состав
Fred Frith / guitars
John Zorn / alto saxophone
21:55
291
Нет комментариев. Ваш будет первым!