Вы используете незарегистрированную версию компонента "Вкладки"!

Поиск

(Free Jazz, Avantgarde) Cecil Taylor (Jimmy Lyons, Alan Silva, Andrew Cyrille) - The Great Paris Concert - 1994, FLAC (image+.cue), lossless

(Free Jazz, Avantgarde) Cecil Taylor (Jimmy Lyons, Alan Silva, Andrew Cyrille) - The Great Paris Concert - 1994, FLAC (image+.cue), lossless
Треклист:
Cecil Taylor / The Great Paris Concert
Жанр: Free Jazz, Avantgarde
Страна-производитель диска: Germany
Год издания: 1994
Издатель (лейбл): Black Lion
Номер по каталогу: BLCD 760201
Аудиокодек: FLAC (*.flac)
Тип рипа: image+.cue
Битрейт аудио: lossless
Продолжительность: 58:52
Источник (релизер): cd
Наличие сканов в содержимом раздачи: нет
Треклист:
1 Student Studies Part 1 15:56
2 Student Studies Part 2 10:54
3 Amplitude 19:49
4 Niggle Feuigle 11:58
 
Лог создания рипа
Exact Audio Copy V1.0 beta 2 from 29. April 2011
EAC extraction logfile from 20. March 2013, 16:29
Cecil Taylor / The Great Paris Concert
Used drive : Optiarc DVD RW AD-7170A Adapter: 0 ID: 0
Read mode : Secure
Utilize accurate stream : Yes
Defeat audio cache : Yes
Make use of C2 pointers : No
Read offset correction : 48
Overread into Lead-In and Lead-Out : No
Fill up missing offset samples with silence : Yes
Delete leading and trailing silent blocks : No
Null samples used in CRC calculations : Yes
Used interface : Native Win32 interface for Win NT & 2000
Used output format : User Defined Encoder
Selected bitrate : 320 kBit/s
Quality : High
Add ID3 tag : No
Command line compressor : C:\Program Files\Exact Audio Copy\Flac\flac.exe
Additional command line options : -V -8 -T "Date=%year%" -T "Genre=%genre%" %source%
TOC of the extracted CD
Track | Start | Length | Start sector | End sector
---------------------------------------------------------
1 | 0:00.00 | 16:00.62 | 0 | 72061
2 | 16:00.62 | 11:00.45 | 72062 | 121606
3 | 27:01.32 | 19:44.55 | 121607 | 210461
4 | 46:46.12 | 12:06.13 | 210462 | 264924
Range status and errors
Selected range
Filename L:\ЕАС\Cecil Taylor - The Great Paris Concert.wav
Peak level 79.6 %
Extraction speed 1.9 X
Range quality 99.9 %
Test CRC F4BDF126
Copy CRC F4BDF126
Copy OK
No errors occurred
AccurateRip summary
Track 1 not present in database
Track 2 not present in database
Track 3 not present in database
Track 4 not present in database
None of the tracks are present in the AccurateRip database
End of status report
==== Log checksum A72985148917B1C12C48EBAB21A22DE68B13A4A2942D25D4D035AC1BCA28F232 ====
 
Содержание индексной карты (.CUE)
REM GENRE Jazz
REM DATE 1994
REM DISCID 310DCC04
REM COMMENT "ExactAudioCopy v1.0b2"
PERFORMER "Cecil Taylor"
TITLE "The Great Paris Concert "
FILE "Cecil Taylor - The Great Paris Concert.flac" WAVE
TRACK 01 AUDIO
TITLE "Student Studies Part 1"
PERFORMER "Cecil Taylor"
INDEX 01 00:00:00
TRACK 02 AUDIO
TITLE "Student Studies Part 2"
PERFORMER "Cecil Taylor"
INDEX 01 16:00:62
TRACK 03 AUDIO
TITLE " Amplitude"
PERFORMER "Cecil Taylor"
INDEX 01 27:01:32
TRACK 04 AUDIO
TITLE "Niggle Feuigle"
PERFORMER "Cecil Taylor"
INDEX 01 46:46:12
Доп. информация: Recorded on 30 November 1966 in Paris, France.
 
Состав
Alto Saxophone – Jimmy Lyons
Bass – Alan Silva
Drums – Andrew Cyrille
Piano, Written-By – Cecil Taylor
Any questions -> support@pro-jazz.com. По всем вопросам пишите -> support@pro-jazz.com
10:21
308
Нет комментариев. Ваш будет первым!