Вы используете незарегистрированную версию компонента "Вкладки"!

Поиск

(Free Jazz / Avant-Garde) Yosuke Yamashita and Bill Laswell with Ryuichi Sakamoto - Asian Games - 1988, APE (image+.cue), lossless

(Free Jazz / Avant-Garde) Yosuke Yamashita and Bill Laswell with Ryuichi Sakamoto - Asian Games - 1988, APE (image+.cue), lossless
Треклист:
Yosuke Yamashita and Bill Laswell with Ryuichi Sakamoto - Asian Games
Жанр: Free Jazz / Avant-Garde
Год выпуска диска: 1993
Производитель диска: U.S.A.
Аудио кодек: APE
Тип рипа: image+.cue
Битрейт аудио: lossless
Продолжительность: 35:26.000 (93756600 samples)
Источник: нонэйм, автор barin99
Трэклист:
Tracklisting:
1. Melting Pot 7:13
2. Chasin' the Air 4:42
3. Asian Games 6:50
4. Ninja Drive 7:46
5. Napping on the Bamboo 5:45
6. A Parade of Rain, the Moon and a Bride 2:41
Музыканты:
Yosuke Yamashita — Piano, Keyboards
Bill Laswell — Bass, Sitar
Ryuichi Sakamoto — Keyboards
Aiyb Dieng — Conga, Cymbals, Gong, Tambourine
 
EAC log:
Exact Audio Copy V0.99 prebeta 4 from 23. January 2008
EAC extraction logfile from 6. March 2009, 20:15
Yosuke Yamashita-Bill Laswell-Ryuichi Sakamoto / Asian Games
Used drive : HL-DT-STRW/DVD GCC-4242N Adapter: 1 ID: 0
Read mode : Secure
Utilize accurate stream : Yes
Defeat audio cache : Yes
Make use of C2 pointers : Yes
Read offset correction : 102
Overread into Lead-In and Lead-Out : No
Fill up missing offset samples with silence : Yes
Delete leading and trailing silent blocks : No
Null samples used in CRC calculations : Yes
Used interface : Native Win32 interface for Win NT & 2000
Used output format : Internal WAV Routines
Sample format : 44.100 Hz; 16 Bit; Stereo
TOC of the extracted CD
Track | Start | Length | Start sector | End sector
---------------------------------------------------------
1 | 0:00.00 | 7:14.37 | 0 | 32586
2 | 7:14.37 | 4:48.03 | 32587 | 54189
3 | 12:02.40 | 6:53.27 | 54190 | 85191
4 | 18:55.67 | 7:53.68 | 85192 | 120734
5 | 26:49.60 | 5:50.35 | 120735 | 147019
6 | 32:40.20 | 2:45.55 | 147020 | 159449
Range status and errors
Selected range
Filename C:\_\EAC_Out\Out\Yosuke Yamashita-Bill Laswell-Ryuichi Sakamoto - Asian Games\Yosuke Yamashita-Bill Laswell-Ryuichi Sakamoto - Asian Games.wav
Peak level 100.0 %
Range quality 100.0 %
Copy CRC 6CD9EB1B
Copy OK
No errors occurred
AccurateRip summary
Track 1 not present in database
Track 2 not present in database
Track 3 not present in database
Track 4 not present in database
Track 5 not present in database
Track 6 not present in database
None of the tracks are present in the AccurateRip database
End of status report
Any questions -> support@pro-jazz.com. По всем вопросам пишите -> support@pro-jazz.com
09:00
184
Нет комментариев. Ваш будет первым!