Поиск

(free jazz, avant-garde, world, ethnic, didgeridoo, innova) [cd] Douglas Ewart - Songs of Sunlife 2003, FLAC (tracks+.cue), lossless

(free jazz, avant-garde, world, ethnic, didgeridoo, innova) [cd] Douglas Ewart - Songs of Sunlife 2003, FLAC (tracks+.cue), lossless
Треклист:
(free jazz, avant-garde, world, ethnic, didgeridoo, innova) [cd] Douglas Ewart - Songs of Sunlife 2003, FLAC (tracks+.cue), lossless


Douglas Ewart - Songs of Sunlife 2003

Жанр: free jazz, avant-garde, world, ethnic, didgeridoo, innova
Год выпуска: 2003
Издатель (лейбл):innova 594
Формат: FLAC (tracks+.cue)
Битрейт аудио: lossless
Продолжительность 45`54
Источник: what.cd

tracks

1. Alone Not Lonely 3:10
2. Mud Bath II 2:50
3. Dancing Inside of Soul 3:45
4. Mud Bath III 2:39
5. Song for Count Ossie and The Mystic Revelation of Rastafari 10:40
6. Ginep 1:48
7. Seeds of War 5:33
8. Walk and Drop 3:10
9. Ancestors Flying 3:05
10. Draghopping 1:52
11. Mizu 2:56
12. Mud Bath I 3:15
13. Constant Springs 1:06


 
.log
Exact Audio Copy V1.0 beta 2 from 29. April 2011
EAC extraction logfile from 25. March 2012, 22:51
Douglas Ewart / Songs of Sunlife
Used drive : TSSTcorpDVD+-RW TS-H653B Adapter: 1 ID: 0
Read mode : Secure
Utilize accurate stream : Yes
Defeat audio cache : Yes
Make use of C2 pointers : No
Read offset correction : 6
Overread into Lead-In and Lead-Out : No
Fill up missing offset samples with silence : Yes
Delete leading and trailing silent blocks : No
Null samples used in CRC calculations : Yes
Used interface : Native Win32 interface for Win NT & 2000
Gap handling : Appended to previous track
Used output format : User Defined Encoder
Selected bitrate : 768 kBit/s
Quality : High
Add ID3 tag : No
Command line compressor : C:\Program Files\Exact Audio Copy\FLAC\FLAC.EXE
Additional command line options : -8 -V -T "ARTIST=%artist%" -T "TITLE=%title%" -T "ALBUM=%albumtitle%" -T "DATE=%year%" -T "TRACKNUMBER=%tracknr%" -T "GENRE=%genre%" -T "PERFORMER=%albuminterpret%" -T "COMPOSER=%composer%" %haslyrics%--tag-from-file=LYRICS
TOC of the extracted CD
Track | Start | Length | Start sector | End sector
---------------------------------------------------------
1 | 0:00.00 | 3:10.11 | 0 | 14260
2 | 3:10.11 | 2:50.40 | 14261 | 27050
3 | 6:00.51 | 3:45.45 | 27051 | 43970
4 | 9:46.21 | 2:39.51 | 43971 | 55946
5 | 12:25.72 | 10:41.06 | 55947 | 104027
6 | 23:07.03 | 1:48.33 | 104028 | 112160
7 | 24:55.36 | 5:33.17 | 112161 | 137152
8 | 30:28.53 | 3:10.07 | 137153 | 151409
9 | 33:38.60 | 3:05.34 | 151410 | 165318
10 | 36:44.19 | 1:52.02 | 165319 | 173720
11 | 38:36.21 | 2:56.25 | 173721 | 186945
12 | 41:32.46 | 3:15.17 | 186946 | 201587
13 | 44:47.63 | 1:06.32 | 201588 | 206569
Track 1
Filename C:\Douglas Ewart - 2003 - Songs of Sunlife\01 - Alone Not Lonely.wav
Pre-gap length 0:00:02.00
Peak level 74.7 %
Extraction speed 4.0 X
Track quality 100.0 %
Test CRC 94CC4487
Copy CRC 94CC4487
Track not present in AccurateRip database
Copy OK
Track 2
Filename C:\Douglas Ewart - 2003 - Songs of Sunlife\02 - Mud Bath II.wav
Peak level 61.8 %
Extraction speed 4.3 X
Track quality 100.0 %
Test CRC 14EA7963
Copy CRC 14EA7963
Track not present in AccurateRip database
Copy OK
Track 3
Filename C:\Douglas Ewart - 2003 - Songs of Sunlife\03 - Dancing Inside of Soul.wav
Peak level 94.0 %
Extraction speed 4.7 X
Track quality 100.0 %
Test CRC 061DFE8B
Copy CRC 061DFE8B
Track not present in AccurateRip database
Copy OK
Track 4
Filename C:\Douglas Ewart - 2003 - Songs of Sunlife\04 - Mud Bath III.wav
Peak level 57.1 %
Extraction speed 3.7 X
Track quality 99.9 %
Test CRC 7EC03F5D
Copy CRC 7EC03F5D
Track not present in AccurateRip database
Copy OK
Track 5
Filename C:\Douglas Ewart - 2003 - Songs of Sunlife\05 - Song for Count Ossie & Mystic Revelation of Rastaferi.wav
Peak level 75.2 %
Extraction speed 5.7 X
Track quality 99.9 %
Test CRC 643997B7
Copy CRC 643997B7
Track not present in AccurateRip database
Copy OK
Track 6
Filename C:\Douglas Ewart - 2003 - Songs of Sunlife\06 - Ginep.wav
Pre-gap length 0:00:01.00
Peak level 47.7 %
Extraction speed 5.3 X
Track quality 100.0 %
Test CRC 9433E33B
Copy CRC 9433E33B
Track not present in AccurateRip database
Copy OK
Track 7
Filename C:\Douglas Ewart - 2003 - Songs of Sunlife\07 - Seeds of War.wav
Peak level 100.0 %
Extraction speed 6.7 X
Track quality 100.0 %
Test CRC 9D92EC9F
Copy CRC 9D92EC9F
Track not present in AccurateRip database
Copy OK
Track 8
Filename C:\Douglas Ewart - 2003 - Songs of Sunlife\08 - Walk and Drop.wav
Peak level 50.7 %
Extraction speed 6.6 X
Track quality 100.0 %
Test CRC 36F09358
Copy CRC 36F09358
Track not present in AccurateRip database
Copy OK
Track 9
Filename C:\Douglas Ewart - 2003 - Songs of Sunlife\09 - Ancestors Flying.wav
Peak level 82.1 %
Extraction speed 6.8 X
Track quality 100.0 %
Test CRC AC1ACC0A
Copy CRC AC1ACC0A
Track not present in AccurateRip database
Copy OK
Track 10
Filename C:\Douglas Ewart - 2003 - Songs of Sunlife\10 - Draghopping.wav
Peak level 60.8 %
Extraction speed 6.2 X
Track quality 100.0 %
Test CRC CB77B0AB
Copy CRC CB77B0AB
Track not present in AccurateRip database
Copy OK
Track 11
Filename C:\Douglas Ewart - 2003 - Songs of Sunlife\11 - Mizu.wav
Peak level 65.3 %
Extraction speed 6.8 X
Track quality 100.0 %
Test CRC C5516895
Copy CRC C5516895
Track not present in AccurateRip database
Copy OK
Track 12
Filename C:\Douglas Ewart - 2003 - Songs of Sunlife\12 - Mud Bath I.wav
Peak level 59.9 %
Extraction speed 5.5 X
Track quality 99.9 %
Test CRC F6ABFDCF
Copy CRC F6ABFDCF
Track not present in AccurateRip database
Copy OK
Track 13
Filename C:\Douglas Ewart - 2003 - Songs of Sunlife\13 - Constant Srings.wav
Peak level 62.2 %
Extraction speed 3.3 X
Track quality 99.8 %
Test CRC C1ECA899
Copy CRC C1ECA899
Track not present in AccurateRip database
Copy OK
None of the tracks are present in the AccurateRip database
No errors occurred
End of status report
==== Log checksum 05E72E13A7299965391FE50243CD345FEC1DDBFA8CBBAC338DCBAF16DE5AEBB9 ====
 
.cue
REM GENRE "New Age"
REM DATE 2003
REM DISCID BE0AC20D
REM COMMENT "ExactAudioCopy v1.0b2"
PERFORMER "Douglas Ewart"
TITLE "Songs of Sunlife"
FILE "01 - Alone Not Lonely.wav" WAVE
TRACK 01 AUDIO
TITLE "Alone Not Lonely"
PERFORMER "Douglas Ewart"
INDEX 01 00:00:00
FILE "02 - Mud Bath II.wav" WAVE
TRACK 02 AUDIO
TITLE "Mud Bath II"
PERFORMER "Douglas Ewart"
INDEX 01 00:00:00
FILE "03 - Dancing Inside of Soul.wav" WAVE
TRACK 03 AUDIO
TITLE "Dancing Inside of Soul"
PERFORMER "Douglas Ewart"
INDEX 01 00:00:00
FILE "04 - Mud Bath III.wav" WAVE
TRACK 04 AUDIO
TITLE "Mud Bath III"
PERFORMER "Douglas Ewart"
INDEX 01 00:00:00
FILE "05 - Song for Count Ossie & Mystic Revelation of Rastaferi.wav" WAVE
TRACK 05 AUDIO
TITLE "Song for Count Ossie & Mystic Revelation of Rastaferi"
PERFORMER "Douglas Ewart"
INDEX 01 00:00:00
TRACK 06 AUDIO
TITLE "Ginep"
PERFORMER "Douglas Ewart"
INDEX 00 10:40:06
FILE "06 - Ginep.wav" WAVE
INDEX 01 00:00:00
FILE "07 - Seeds of War.wav" WAVE
TRACK 07 AUDIO
TITLE "Seeds of War"
PERFORMER "Douglas Ewart"
INDEX 01 00:00:00
FILE "08 - Walk and Drop.wav" WAVE
TRACK 08 AUDIO
TITLE "Walk and Drop"
PERFORMER "Douglas Ewart"
INDEX 01 00:00:00
FILE "09 - Ancestors Flying.wav" WAVE
TRACK 09 AUDIO
TITLE "Ancestors Flying"
PERFORMER "Douglas Ewart"
INDEX 01 00:00:00
FILE "10 - Draghopping.wav" WAVE
TRACK 10 AUDIO
TITLE "Draghopping"
PERFORMER "Douglas Ewart"
INDEX 01 00:00:00
FILE "11 - Mizu.wav" WAVE
TRACK 11 AUDIO
TITLE "Mizu"
PERFORMER "Douglas Ewart"
INDEX 01 00:00:00
FILE "12 - Mud Bath I.wav" WAVE
TRACK 12 AUDIO
TITLE "Mud Bath I"
PERFORMER "Douglas Ewart"
INDEX 01 00:00:00
FILE "13 - Constant Srings.wav" WAVE
TRACK 13 AUDIO
TITLE "Constant Srings"
PERFORMER "Douglas Ewart"
INDEX 01 00:00:00

http://www.discogs.com/Douglas-Ewart-Songs-Of-Sunlife-Inside-The-Didjeridu/release/2496822
другие релизы
19:42
386
Нет комментариев. Ваш будет первым!