Вы используете незарегистрированную версию компонента "Вкладки"!

Поиск

(Free Jazz, Avant-Garde) William Parker & The Little Huey Creative Music Orchestra - Mayor of Punkville - 2000, FLAC (tracks+.cue), lossless

(Free Jazz, Avant-Garde) William Parker & The Little Huey Creative Music Orchestra - Mayor of Punkville - 2000, FLAC (tracks+.cue), lossless
Треклист:
William Parker
& The Little Huey Creative Music Orchestra
Mayor of Punkville

Жанр: Free Jazz, Avant-Garde
Год выпуска диска: 2000
Производитель диска: США
Аудио кодек: FLAC
Тип рипа: tracks+.cue
Битрейт аудио: lossless
Продолжительность: 2:20:44
Трэклист:
Disc1:
1. Interlude #1 (The Next Phase) 4:00
2. James Baldwin to the Rescue 18:26
3. Oglala Eclipse 19:47
4. I Can't Believe I Am Here 28:50
Disc 2:
1. (5) Interlude #7 (Huey's Blues) 5:23
2. (6) 3 Steps to Noh Mountain: Depature 5:08
3. (7) 3 Steps to Noh Mountain: Soft Wheel 5:22
4. (8) 3 Steps to Noh Mountain: Laughing Eyes and Dancing 3:45
5. (9) The Mayor of Punkville 30:51
6. (10) Interlude #8 (Holy Door) 6:01
7. (11) Anthem 13:07
 
The Little Huey Creative Music Orchestra
William Parker: Bass 4, 5, 7, 8, 9, 11 Piano 1, 6, 10, Leader
Roy Campbell: Trumpet/Flugelhorn 2-4, 6-9, 11
Richard Rodriguez: Trumpet 1-11
Lewis Barnes: Trumpet 1, 4-11
Masahiko Kono: Trombone 1-11
Steve Swell: Trombone 1-11
Alex Lodico: Trombone 1-11
Chris Jonas: Soprano Sax 1-11
Darryl Foster: Tenor Sax/Soprano Sax 1-11
Rob Brown: Alto Sax/Flute 2-4, 9-11
Ori Kaplan: Alto Sax 1-11
Charles Waters: Alto Sax/Clarinet 1-11
Dave Sewelson: Baritone Sax 2-4, 6-9, 11
Dave Hofstra: Tuba 1, 4, 5, 9-11 Bass 2, 3
Andrew Barker: Drums 2-4, 6-9, 11
Cooper-Moore: Piano 2, 3
Aleta Hayes: Voice 2
Доп. информация: Возобновление ушедшей в архив раздачи http://rutracker.org/forum/viewtopic.php?t=1122609 (спасибо yurry1).
 
Отчёт EAC
 
I
EAC extraction logfile from 3. September 2008, 15:41 for CD
William Parker & the Little Huey Creative Music Orchestra / Mayor of Punkville
Used drive : HL-DT-STDVDRAM GSA-H10N Adapter: 0 ID: 0
Read mode : Secure with NO C2, accurate stream, disable cache
Read offset correction : 667
Overread into Lead-In and Lead-Out : No
Used output format : C:\Program Files\FLAC\flac.exe (User Defined Encoder)
128 kBit/s
Additional command line options : -8 -V -T "ARTIST=%a" -T "TITLE=%t" -T "ALBUM=%g" -T "DATE=%y" -T "TRACKNUMBER=%n" -T "GENRE=%m" -T "COMMENT=EAC FLAC -8" %s
Other options :
Fill up missing offset samples with silence : Yes
Delete leading and trailing silent blocks : No
Native Win32 interface for Win NT & 2000
Track 1
Filename D:\Torrents\William Parker and The Little Huey Music Orchestra - Mayor of Punkville (2000) [FLAC]\01 - Interlude 1 The Next Phase.wav
Pre-gap length 0:00:02.00
Peak level 79.4 %
Track quality 100.0 %
Test CRC 661B3F52
Copy CRC 661B3F52
Copy OK
Track 2
Filename D:\Torrents\William Parker and The Little Huey Music Orchestra - Mayor of Punkville (2000) [FLAC]\02 - James Baldwin to the Rescue.wav
Peak level 100.0 %
Track quality 100.0 %
Test CRC D872E93D
Copy CRC D872E93D
Copy OK
Track 3
Filename D:\Torrents\William Parker and The Little Huey Music Orchestra - Mayor of Punkville (2000) [FLAC]\03 - Oglala Eclipse.wav
Pre-gap length 0:00:05.09
Peak level 100.0 %
Track quality 100.0 %
Test CRC DDE396BD
Copy CRC DDE396BD
Copy OK
Track 4
Filename D:\Torrents\William Parker and The Little Huey Music Orchestra - Mayor of Punkville (2000) [FLAC]\04 - I Can't Believe I am Here.wav
Pre-gap length 0:00:03.49
Peak level 89.8 %
Track quality 99.9 %
Test CRC 518EF2C4
Copy CRC 518EF2C4
Copy OK
No errors occured
End of status report
 
II
EAC extraction logfile from 3. September 2008, 20:53 for CD
William Parker & The Little Huey Creative Music Orchestra / Mayor Of Punkville
Used drive : HL-DT-STDVDRAM GSA-H10N Adapter: 0 ID: 0
Read mode : Secure with NO C2, accurate stream, disable cache
Read offset correction : 667
Overread into Lead-In and Lead-Out : No
Used output format : C:\Program Files\FLAC\flac.exe (User Defined Encoder)
128 kBit/s
Additional command line options : -8 -V -T "ARTIST=%a" -T "TITLE=%t" -T "ALBUM=%g" -T "DATE=%y" -T "TRACKNUMBER=%n" -T "GENRE=%m" -T "COMMENT=EAC FLAC -8" %s
Other options :
Fill up missing offset samples with silence : Yes
Delete leading and trailing silent blocks : No
Native Win32 interface for Win NT & 2000
Track 1
Filename D:\Torrents\disc 2\01 - Interlude No. 7 Huey's Blues.wav
Pre-gap length 0:00:02.00
Peak level 99.3 %
Track quality 100.0 %
Test CRC 0A1F8D9E
Copy CRC 0A1F8D9E
Copy OK
Track 2
Filename D:\Torrents\disc 2\02 - Departure.wav
Pre-gap length 0:00:01.29
Peak level 100.0 %
Track quality 100.0 %
Test CRC 958D41D6
Copy CRC 958D41D6
Copy OK
Track 3
Filename D:\Torrents\disc 2\03 - Soft Wheel.wav
Peak level 87.7 %
Track quality 99.9 %
Test CRC 7EEFF6BD
Copy CRC 7EEFF6BD
Copy OK
Track 4
Filename D:\Torrents\disc 2\04 - Laughing Eyes And Dancing Hearts.wav
Peak level 91.7 %
Track quality 100.0 %
Test CRC 4E9C3A08
Copy CRC 4E9C3A08
Copy OK
Track 5
Filename D:\Torrents\disc 2\05 - The Mayor Of Punkville.wav
Pre-gap length 0:00:03.73
Peak level 92.4 %
Track quality 100.0 %
Test CRC A19267CC
Copy CRC A19267CC
Copy OK
Track 6
Filename D:\Torrents\disc 2\06 - Interlude No. 8 Holy Door.wav
Pre-gap length 0:00:03.77
Peak level 92.0 %
Track quality 100.0 %
Test CRC B12FD1B7
Copy CRC B12FD1B7
Copy OK
Track 7
Filename D:\Torrents\disc 2\07 - Anthem.wav
Pre-gap length 0:00:00.93
Peak level 78.6 %
Track quality 99.9 %
Test CRC 4251485E
Copy CRC 4251485E
Copy OK
No errors occured
End of status report
Any questions -> support@pro-jazz.com. По всем вопросам пишите -> support@pro-jazz.com
12:40
130
Нет комментариев. Ваш будет первым!