Вы используете незарегистрированную версию компонента "Вкладки"!

Поиск

(Free Jazz, Avant-Garde, Synth-pop) Lick Machine (with Leonid Soybelman) - Lick Machine - 2002, APE (image+.cue) lossless

Треклист:
Lick Machine (with Leonid Soybelman) / Lick Machine
Жанр: Free Jazz, Avant-Garde, Synth-pop
Страна-производитель диска: Germany
Год издания диска: 2002
Издатель (лейбл): Moos
Номер по каталогу: mooscd 001
Страна: Germany
Аудио кодек: APE (*.ape)
Тип рипа: image+.cue
Битрейт аудио: lossless
Продолжительность: 19'52
Источник (релизер): nnm.ru
Наличие сканов в содержимом раздачи: нет
Треклист:
1 Kill Me Again (3:21)
2 Shopping (2:44)
3 Normal (3:43)
4 Girls In Rome (3:17)
5 Breakfast Tonight (3:10)
6 Beep (3:34)
 
Лог создания рипа
Exact Audio Copy V0.99 prebeta 5 from 4. May 2009
Отчёт EAC об извлечении, выполненном 21. сентября 2009, 15:40
Lickmachine / Lickmachine
Дисковод: PIONEER DVD-RW DVR-K16S Adapter: 0 ID: 0
Режим чтения : Достоверность
Использование точного потока : Да
Отключение кэша аудио : Да
Использование указателей C2 : Нет
Коррекция смещения при чтении : 48
Способность читать области Lead-in и Lead-out : Нет
Заполнение пропущенных сэмплов тишиной : Да
Удаление блоков с тишиной в начале и конце : Нет
При вычислениях CRC использовались нулевые сэмплы : Да
Интерфейс : Встроенный Win32-интерфейс для Win NT/2000
Выходной формат : Внутренние WAV-операции
Формат сэмплов : 44.100 Гц; 16 бит; стерео
TOC извлечённого CD
Трек | Старт | Длительность | Начальный сектор | Конечный сектор
---------------------------------------------------------------------
1 | 0:00.00 | 3:21.32 | 0 | 15106
2 | 3:21.32 | 2:44.51 | 15107 | 27457
3 | 6:06.08 | 3:43.33 | 27458 | 44215
4 | 9:49.41 | 3:17.71 | 44216 | 59061
5 | 13:07.37 | 3:10.39 | 59062 | 73350
6 | 16:18.01 | 3:34.68 | 73351 | 89468
Характеристики диапазона извлечения и сообщения об ошибках
Выбранный диапазон
Имя файла D:\Рабочий стол\Lickmachine - Lickmachine\Lickmachine - Lickmachine.wav
Пиковый уровень 98.0 %
Качество диапазона 100.0 %
CRC копии 28809198
Копирование... OK
Ошибок не произошло
AccurateRip: сводка
Трек 1 нет в базе данных
Трек 2 нет в базе данных
Трек 3 нет в базе данных
Трек 4 нет в базе данных
Трек 5 нет в базе данных
Трек 6 нет в базе данных
Ни одного трека нет в базе AccurateRip
Конец отчёта
 
Состав
Personnel:
Joe Williamson — Bass, Organ, Voice
Nicholas Bussmann — Cello, Voice, Performer [Synthisator]
Hanno Leichtmann — Drums, Synthesizer
Leonid Soybelman — Guitar, Organ, Voice
Dylan Van Der Schyff — Performer [Beats]
Guests: Hanno Leichtmann, Dylan Van Der Schyff
Any questions -> support@pro-jazz.com. По всем вопросам пишите -> support@pro-jazz.com
08:54
148
Нет комментариев. Ваш будет первым!