Вы используете незарегистрированную версию компонента "Вкладки"!

Поиск

(Free Jazz / Avant-Garde) Sirone Bang Ensemble - Configuration - 2005, FLAC (tracks+.cue), lossless

Треклист:
Sirone Bang Ensemble - Configuration
Жанр: Free Jazz / Avant-Garde
Год выпуска : 2005
Лейбл: Silkheart Records
Аудио кодек: FLAC
Тип рипа: tracks+.cue
Битрейт аудио: lossless
Продолжительность: 01:05:58
Рип: hanswurst - What CD


01. Jupiter's Future (15:47)
02. Freedom Flexibility (6:07)
03. We Are Not Alone, But We Are Few (14:05)
04. I Remember Albert (13:56)
05. Notre Dame De La Garde (7:29)
06. Configuration (8:35)

 
EAC
Exact Audio Copy V0.99 prebeta 4 from 23. January 2008
EAC extraction logfile from 29. May 2008, 18:57
Sirone Bang Ensemble / Configuration
Used drive : PLEXTOR CD-R PREMIUM2 Adapter: 0 ID: 1
Read mode : Secure
Utilize accurate stream : Yes
Defeat audio cache : Yes
Make use of C2 pointers : No
Read offset correction : 30
Overread into Lead-In and Lead-Out : Yes
Fill up missing offset samples with silence : Yes
Delete leading and trailing silent blocks : No
Null samples used in CRC calculations : Yes
Used interface : Installed external ASPI interface
Gap handling : Appended to previous track
Used output format : User Defined Encoder
Selected bitrate : 128 kBit/s
Quality : High
Add ID3 tag : No
Command line compressor : C:\Programme\FLAC\flac.exe
Additional command line options : -5 -V -T "artist=%a" -T "title=%t" -T "album=%g" -T "date=%y" -T "tracknumber=%n" -T "genre=%m" -T "comment=Exact Audio Copy 0.99pb4, Flac 1.2.1.b -5" %s
TOC of the extracted CD
Track | Start | Length | Start sector | End sector
---------------------------------------------------------
1 | 0:00.00 | 15:47.36 | 0 | 71060
2 | 15:47.36 | 6:06.56 | 71061 | 98566
3 | 21:54.17 | 14:04.68 | 98567 | 161934
4 | 35:59.10 | 13:55.68 | 161935 | 224627
5 | 49:55.03 | 7:28.51 | 224628 | 258278
6 | 57:23.54 | 8:34.51 | 258279 | 296879
Track 1
Filename C:\Sirone Bang Ensemble - Configuration (2005) [FLAC] {SILKHEART SHCD 155}\01 - Jupiter's Future.wav
Pre-gap length 0:00:02.00
Peak level 95.2 %
Track quality 100.0 %
Test CRC B8D10D5F
Copy CRC B8D10D5F
Track not present in AccurateRip database
Copy OK
Track 2
Filename C:\Sirone Bang Ensemble - Configuration (2005) [FLAC] {SILKHEART SHCD 155}\02 - Freedom Flexibility.wav
Peak level 96.1 %
Track quality 100.0 %
Test CRC 06AD1DAD
Copy CRC 06AD1DAD
Track not present in AccurateRip database
Copy OK
Track 3
Filename C:\Sirone Bang Ensemble - Configuration (2005) [FLAC] {SILKHEART SHCD 155}\03 - We Are Not Alone, But We Are Few.wav
Peak level 91.1 %
Track quality 100.0 %
Test CRC 7A0A2F67
Copy CRC 7A0A2F67
Track not present in AccurateRip database
Copy OK
Track 4
Filename C:\Sirone Bang Ensemble - Configuration (2005) [FLAC] {SILKHEART SHCD 155}\04 - I Remember Albert.wav
Peak level 100.0 %
Track quality 100.0 %
Test CRC D5AC12DA
Copy CRC D5AC12DA
Track not present in AccurateRip database
Copy OK
Track 5
Filename C:\Sirone Bang Ensemble - Configuration (2005) [FLAC] {SILKHEART SHCD 155}\05 - Notre Dame De La Garde.wav
Peak level 75.6 %
Track quality 100.0 %
Test CRC A208A2CD
Copy CRC A208A2CD
Track not present in AccurateRip database
Copy OK
Track 6
Filename C:\Sirone Bang Ensemble - Configuration (2005) [FLAC] {SILKHEART SHCD 155}\06 - Configuration.wav
Peak level 100.0 %
Track quality 99.9 %
Test CRC D424855F
Copy CRC D424855F
Track not present in AccurateRip database
Copy OK
None of the tracks are present in the AccurateRip database
No errors occurred
End of status report
 
CUE
REM GENRE Jazz
REM DATE 2005
REM DISCID 580F7606
REM COMMENT "ExactAudioCopy v0.99pb4"
PERFORMER "Sirone Bang Ensemble"
TITLE "Configuration"
FILE "01 - Jupiter's Future.wav" WAVE
TRACK 01 AUDIO
TITLE "Jupiter's Future"
PERFORMER "Sirone Bang Ensemble"
INDEX 01 00:00:00
FILE "02 - Freedom Flexibility.wav" WAVE
TRACK 02 AUDIO
TITLE "Freedom Flexibility"
PERFORMER "Sirone Bang Ensemble"
INDEX 01 00:00:00
FILE "03 - We Are Not Alone, But We Are Few.wav" WAVE
TRACK 03 AUDIO
TITLE "We Are Not Alone, But We Are Few"
PERFORMER "Sirone Bang Ensemble"
INDEX 01 00:00:00
FILE "04 - I Remember Albert.wav" WAVE
TRACK 04 AUDIO
TITLE "I Remember Albert"
PERFORMER "Sirone Bang Ensemble"
INDEX 01 00:00:00
FILE "05 - Notre Dame De La Garde.wav" WAVE
TRACK 05 AUDIO
TITLE "Notre Dame De La Garde"
PERFORMER "Sirone Bang Ensemble"
INDEX 01 00:00:00
FILE "06 - Configuration.wav" WAVE
TRACK 06 AUDIO
TITLE "Configuration"
PERFORMER "Sirone Bang Ensemble"
INDEX 01 00:00:00
 
Audiochecker
Started at: воскресенье, 06. 06. 2010. - 17:57.53
6 files found
1 -===- C:\Downloads\Music\Джаз\Sirone Bang Ensemble - Configuration - 2005\01 - Jupiter's Future.flac
Extracted successfully
Conclusion: This track looks like CDDA with probability 100%
Tempfile successfully deleted.
2 -===- C:\Downloads\Music\Джаз\Sirone Bang Ensemble - Configuration - 2005\02 - Freedom Flexibility.flac
Extracted successfully
Conclusion: This track looks like CDDA with probability 100%
Tempfile successfully deleted.
3 -===- C:\Downloads\Music\Джаз\Sirone Bang Ensemble - Configuration - 2005\03 - We Are Not Alone, But We Are Few.flac
Extracted successfully
Conclusion: This track looks like CDDA with probability 100%
Tempfile successfully deleted.
4 -===- C:\Downloads\Music\Джаз\Sirone Bang Ensemble - Configuration - 2005\04 - I Remember Albert.flac
Extracted successfully
Conclusion: This track looks like CDDA with probability 99%
Tempfile successfully deleted.
5 -===- C:\Downloads\Music\Джаз\Sirone Bang Ensemble - Configuration - 2005\05 - Notre Dame De La Garde.flac
Extracted successfully
Conclusion: This track looks like CDDA with probability 100%
Tempfile successfully deleted.
6 -===- C:\Downloads\Music\Джаз\Sirone Bang Ensemble - Configuration - 2005\06 - Configuration.flac
Extracted successfully
Conclusion: This track looks like CDDA with probability 99%
Tempfile successfully deleted.
Finished at: воскресенье, 06. 06. 2010. - 18:10.30 (operation time: 0:12.36)

Billy Bang (violin)
Charles Gayle (alte & tenor saxophones)
Sirone (double bass)
Tyshawn Sorey (drums)
По всем вопросам пишите личное сообщение пользователю M0p94ok.
23:28
151
Нет комментариев. Ваш будет первым!