Вы используете незарегистрированную версию компонента "Вкладки"!

Поиск

(free jazz, avant-garde) Satoko Fujii Orchestra - South Wind 1997, FLAC (tracks+.cue), lossless

(free jazz, avant-garde) Satoko Fujii Orchestra - South Wind 1997, FLAC (tracks+.cue), lossless
Треклист:
 
*

Satoko Fujii Orchestra - South Wind 1997

Жанр: free jazz, avant-garde
Год выпуска: 1997
Издатель (лейбл): Libra Records / Libra 215-104
Формат: FLAC (tracks+.cue)
Битрейт аудио: lossless
Продолжительность 1`06`35
Источник: what.cd, 6060842
Bass – Stomu Takeishi
Bass Clarinet, Alto Saxophone – Oscar Noriega
Clarinet, Alto Saxophone – Briggan Krauss
Clarinet, Bass Saxophone – Andy Laster
Cornet, Trumpet – Herb Robertson
Drums – Aaron Alexander
Flute [Bamboo], Soprano Saxophone, Tenor Saxophone – Dave Castiglione*
Piano – Satoko Fujii
Soprano Saxophone, Tenor Saxophone – Tony Malaby
Trombone – Curtis Hasselbring, Joe Fiedler, Joey Sellers
Trumpet – Dave Ballou, Natsuki Tamura
Recorded by Mike Marciano, Joe Marciano, and Nancy Marciano at Systems Two Studios, New York City, June 19, 1997
Remastered for Libra Records by Scott Hull at Hit Factory, April 15, 2004
Design and photos by Motonobu Furuhata

tracks

1 Jet Leg 10:32
2 No More 9:02
3 Indication/Spring 10:37
4 Silence/Summer 6:33
5 This Is About You/Fall 4:15
6 Freeze/Winter 5:52
7 I Don''t Know 8:42
8 South Wind 10:59


 
.log
X Lossless Decoder version 20130602 (143.2)
XLD extraction logfile from 2013-06-17 21:24:48 +0400
Satoko Fujii Orchestra / South Wind
Used drive : HL-DT-ST DVDRW GX30N (revision RP09)
Media type : Pressed CD
Ripper mode : XLD Secure Ripper
Disable audio cache : OK for the drive with a cache less than 1375KiB
Make use of C2 pointers : NO
Read offset correction : 6
Max retry count : 100
Gap status : Analyzed, Appended (except HTOA)
TOC of the extracted CD
Track | Start | Length | Start sector | End sector
---------------------------------------------------------
1 | 00:00:00 | 10:33:10 | 0 | 47484
2 | 10:33:10 | 09:03:36 | 47485 | 88245
3 | 19:36:46 | 10:37:32 | 88246 | 136052
4 | 30:14:03 | 06:32:74 | 136053 | 165526
5 | 36:47:02 | 04:14:72 | 165527 | 184648
6 | 41:01:74 | 05:52:39 | 184649 | 211087
7 | 46:54:38 | 08:42:09 | 211088 | 250246
8 | 55:36:47 | 10:58:41 | 250247 | 299637
AccurateRip Summary (DiscID: 00151a15-008991e8-6f0f9b08)
Track 01 : OK (v1, confidence 1/1)
Track 02 : OK (v1, confidence 1/1)
Track 03 : OK (v1, confidence 1/1)
Track 04 : OK (v1, confidence 1/1)
Track 05 : OK (v1, confidence 1/1)
Track 06 : OK (v1, confidence 1/1)
Track 07 : OK (v1, confidence 1/1)
Track 08 : OK (v1, confidence 1/1)
->All tracks accurately ripped.
All Tracks
Album gain : -8.92 dB
Peak : 0.966187
Statistics
Read error : 0
Jitter error (maybe fixed) : 0
Retry sector count : 0
Damaged sector count : 0
Track 01
Filename : /Users/anch/Music/FLAC/Satoko Fujii Orchestra - 1997 - South Wind [MP3 320]/01 - Jet Lag.mp3
/Users/anch/Music/FLAC/Satoko Fujii Orchestra - 1997 - South Wind [MP3 V0]/01 - Jet Lag.mp3
/Users/anch/Music/FLAC/Satoko Fujii Orchestra - 1997 - South Wind [FLAC]/01 - Jet Lag.flac
Pre-gap length : 00:02:00
Track gain : -8.49 dB
Peak : 0.966187
CRC32 hash (test run) : 0A39EBB6
CRC32 hash : 0A39EBB6
CRC32 hash (skip zero) : 98881BF7
AccurateRip v1 signature : 14F5F40C
AccurateRip v2 signature : 8983C4E6
->Accurately ripped (v1, confidence 1/1)
Statistics
Read error : 0
Jitter error (maybe fixed) : 0
Retry sector count : 0
Damaged sector count : 0
Track 02
Filename : /Users/anch/Music/FLAC/Satoko Fujii Orchestra - 1997 - South Wind [MP3 320]/02 - No More.mp3
/Users/anch/Music/FLAC/Satoko Fujii Orchestra - 1997 - South Wind [MP3 V0]/02 - No More.mp3
/Users/anch/Music/FLAC/Satoko Fujii Orchestra - 1997 - South Wind [FLAC]/02 - No More.flac
Track gain : -9.33 dB
Peak : 0.966187
CRC32 hash (test run) : 1CF048A8
CRC32 hash : 1CF048A8
CRC32 hash (skip zero) : 5A6AE7C0
AccurateRip v1 signature : 1EB098C6
AccurateRip v2 signature : CC41F239
->Accurately ripped (v1, confidence 1/1)
Statistics
Read error : 0
Jitter error (maybe fixed) : 0
Retry sector count : 0
Damaged sector count : 0
Track 03
Filename : /Users/anch/Music/FLAC/Satoko Fujii Orchestra - 1997 - South Wind [MP3 320]/03 - The Seasons - Indication (Spring).mp3
/Users/anch/Music/FLAC/Satoko Fujii Orchestra - 1997 - South Wind [MP3 V0]/03 - The Seasons - Indication (Spring).mp3
/Users/anch/Music/FLAC/Satoko Fujii Orchestra - 1997 - South Wind [FLAC]/03 - The Seasons - Indication (Spring).flac
Track gain : -8.78 dB
Peak : 0.966187
CRC32 hash (test run) : 45285C65
CRC32 hash : 45285C65
CRC32 hash (skip zero) : A11CBFA8
AccurateRip v1 signature : 39C8BD06
AccurateRip v2 signature : DEF02D27
->Accurately ripped (v1, confidence 1/1)
Statistics
Read error : 0
Jitter error (maybe fixed) : 0
Retry sector count : 0
Damaged sector count : 0
Track 04
Filename : /Users/anch/Music/FLAC/Satoko Fujii Orchestra - 1997 - South Wind [MP3 320]/04 - The Seasons - Silence (Summer).mp3
/Users/anch/Music/FLAC/Satoko Fujii Orchestra - 1997 - South Wind [MP3 V0]/04 - The Seasons - Silence (Summer).mp3
/Users/anch/Music/FLAC/Satoko Fujii Orchestra - 1997 - South Wind [FLAC]/04 - The Seasons - Silence (Summer).flac
Track gain : -6.54 dB
Peak : 0.966156
CRC32 hash (test run) : CF726F0B
CRC32 hash : CF726F0B
CRC32 hash (skip zero) : 8FD8985F
AccurateRip v1 signature : 24CCE765
AccurateRip v2 signature : EDF2AEFD
->Accurately ripped (v1, confidence 1/1)
Statistics
Read error : 0
Jitter error (maybe fixed) : 0
Retry sector count : 0
Damaged sector count : 0
Track 05
Filename : /Users/anch/Music/FLAC/Satoko Fujii Orchestra - 1997 - South Wind [MP3 320]/05 - The Seasons - This Is About You (Fall).mp3
/Users/anch/Music/FLAC/Satoko Fujii Orchestra - 1997 - South Wind [MP3 V0]/05 - The Seasons - This Is About You (Fall).mp3
/Users/anch/Music/FLAC/Satoko Fujii Orchestra - 1997 - South Wind [FLAC]/05 - The Seasons - This Is About You (Fall).flac
Track gain : -7.78 dB
Peak : 0.966156
CRC32 hash (test run) : 6A3BD5AF
CRC32 hash : 6A3BD5AF
CRC32 hash (skip zero) : F7C8F33B
AccurateRip v1 signature : 6F2097AC
AccurateRip v2 signature : 2CF2833B
->Accurately ripped (v1, confidence 1/1)
Statistics
Read error : 0
Jitter error (maybe fixed) : 0
Retry sector count : 0
Damaged sector count : 0
Track 06
Filename : /Users/anch/Music/FLAC/Satoko Fujii Orchestra - 1997 - South Wind [MP3 320]/06 - The Seasons - Freeze (Winter).mp3
/Users/anch/Music/FLAC/Satoko Fujii Orchestra - 1997 - South Wind [MP3 V0]/06 - The Seasons - Freeze (Winter).mp3
/Users/anch/Music/FLAC/Satoko Fujii Orchestra - 1997 - South Wind [FLAC]/06 - The Seasons - Freeze (Winter).flac
Track gain : -9.51 dB
Peak : 0.966156
CRC32 hash (test run) : 0C9B4AFE
CRC32 hash : 0C9B4AFE
CRC32 hash (skip zero) : 6194BEFD
AccurateRip v1 signature : 0DE1B0DE
AccurateRip v2 signature : 02E35165
->Accurately ripped (v1, confidence 1/1)
Statistics
Read error : 0
Jitter error (maybe fixed) : 0
Retry sector count : 0
Damaged sector count : 0
Track 07
Filename : /Users/anch/Music/FLAC/Satoko Fujii Orchestra - 1997 - South Wind [MP3 320]/07 - I Don't Know.mp3
/Users/anch/Music/FLAC/Satoko Fujii Orchestra - 1997 - South Wind [MP3 V0]/07 - I Don't Know.mp3
/Users/anch/Music/FLAC/Satoko Fujii Orchestra - 1997 - South Wind [FLAC]/07 - I Don't Know.flac
Track gain : -8.87 dB
Peak : 0.966156
CRC32 hash (test run) : BD122518
CRC32 hash : BD122518
CRC32 hash (skip zero) : F03DF98A
AccurateRip v1 signature : 95D2EA7E
AccurateRip v2 signature : C8F9CD2C
->Accurately ripped (v1, confidence 1/1)
Statistics
Read error : 0
Jitter error (maybe fixed) : 0
Retry sector count : 0
Damaged sector count : 0
Track 08
Filename : /Users/anch/Music/FLAC/Satoko Fujii Orchestra - 1997 - South Wind [MP3 320]/08 - South Wind.mp3
/Users/anch/Music/FLAC/Satoko Fujii Orchestra - 1997 - South Wind [MP3 V0]/08 - South Wind.mp3
/Users/anch/Music/FLAC/Satoko Fujii Orchestra - 1997 - South Wind [FLAC]/08 - South Wind.flac
Track gain : -9.41 dB
Peak : 0.966156
CRC32 hash (test run) : 424D832E
CRC32 hash : 424D832E
CRC32 hash (skip zero) : E9E36681
AccurateRip v1 signature : 05A9606B
AccurateRip v2 signature : 26ADD2C3
->Accurately ripped (v1, confidence 1/1)
Statistics
Read error : 0
Jitter error (maybe fixed) : 0
Retry sector count : 0
Damaged sector count : 0
No errors occurred
End of status report
 
.cue
TITLE "South Wind"
PERFORMER "Satoko Fujii Orchestra"
REM GENRE "Jazz"
REM DATE "1997"
REM DISCNUMBER 1
REM TOTALDISCS 1
REM DISCID 6F0F9B08
REM REPLAYGAIN_ALBUM_GAIN -8.92 dB
REM REPLAYGAIN_ALBUM_PEAK 0.966187
FILE "01 - Jet Lag.flac" WAVE
TRACK 01 AUDIO
TITLE "Jet Lag"
PERFORMER "Satoko Fujii Orchestra"
REM REPLAYGAIN_TRACK_GAIN -8.49 dB
REM REPLAYGAIN_TRACK_PEAK 0.966187
INDEX 01 00:00:00
FILE "02 - No More.flac" WAVE
TRACK 02 AUDIO
TITLE "No More"
PERFORMER "Satoko Fujii Orchestra"
REM REPLAYGAIN_TRACK_GAIN -9.33 dB
REM REPLAYGAIN_TRACK_PEAK 0.966187
INDEX 01 00:00:00
FILE "03 - The Seasons - Indication (Spring).flac" WAVE
TRACK 03 AUDIO
TITLE "The Seasons: Indication (Spring)"
PERFORMER "Satoko Fujii Orchestra"
REM REPLAYGAIN_TRACK_GAIN -8.78 dB
REM REPLAYGAIN_TRACK_PEAK 0.966187
INDEX 01 00:00:00
FILE "04 - The Seasons - Silence (Summer).flac" WAVE
TRACK 04 AUDIO
TITLE "The Seasons: Silence (Summer)"
PERFORMER "Satoko Fujii Orchestra"
REM REPLAYGAIN_TRACK_GAIN -6.54 dB
REM REPLAYGAIN_TRACK_PEAK 0.966156
INDEX 01 00:00:00
FILE "05 - The Seasons - This Is About You (Fall).flac" WAVE
TRACK 05 AUDIO
TITLE "The Seasons: This Is About You (Fall)"
PERFORMER "Satoko Fujii Orchestra"
REM REPLAYGAIN_TRACK_GAIN -7.78 dB
REM REPLAYGAIN_TRACK_PEAK 0.966156
INDEX 01 00:00:00
FILE "06 - The Seasons - Freeze (Winter).flac" WAVE
TRACK 06 AUDIO
TITLE "The Seasons: Freeze (Winter)"
PERFORMER "Satoko Fujii Orchestra"
REM REPLAYGAIN_TRACK_GAIN -9.51 dB
REM REPLAYGAIN_TRACK_PEAK 0.966156
INDEX 01 00:00:00
FILE "07 - I Don't Know.flac" WAVE
TRACK 07 AUDIO
TITLE "I Don't Know"
PERFORMER "Satoko Fujii Orchestra"
REM REPLAYGAIN_TRACK_GAIN -8.87 dB
REM REPLAYGAIN_TRACK_PEAK 0.966156
INDEX 01 00:00:00
FILE "08 - South Wind.flac" WAVE
TRACK 08 AUDIO
TITLE "South Wind"
PERFORMER "Satoko Fujii Orchestra"
REM REPLAYGAIN_TRACK_GAIN -9.41 dB
REM REPLAYGAIN_TRACK_PEAK 0.966156
INDEX 01 00:00:00

другие релизы
Any questions -> support@pro-jazz.com. По всем вопросам пишите -> support@pro-jazz.com
15:20
169
Нет комментариев. Ваш будет первым!