Вы используете незарегистрированную версию компонента "Вкладки"!

Поиск

(Free Jazz, Avant-Garde, Post Bop) Tim Berne's Hard Cell: Feign - 2005, APE (image+.cue), lossless

(Free Jazz, Avant-Garde, Post Bop) Tim Berne's Hard Cell: Feign - 2005, APE (image+.cue), lossless
Треклист:
Tim Berne's Hard Cell: Feign
Жанр: Free Jazz, Avant-Garde, Post Bop
Год выпуска диска: 2005
Производитель диска: USA
Аудио кодек: APE
Тип рипа: image+.cue
Битрейт аудио: lossless
Продолжительность: 51:10
Трэклист:
1. I Do It (for Brookti) [3:44]
2. Time Laugh [9:09]
3. Brokelyn [8:17]
4. Mechanicals Failure [6:34]
5. My First Phone [8:24]
6. BG…Uh…Oh [4:19]
7. I Thought You Had It [7:50]
8. Pan/Ex [2:37]
Доп. информация:
Screwgun Records - SCREWU700015 (2005)
Tim Berne - alto sax
Tom Rainey - drums
Craig Taborn - piano
 
Отчёт EAC
Exact Audio Copy V0.99 prebeta 4 from 23. January 2008
Отчёт EAC об извлечении, выполненном 29. марта 2009, 1:35
Tim Berne / Feign
Дисковод: TSSTcorpCDDVDW SH-S203D Adapter: 3 ID: 0
Режим чтения : Достоверность
Использование точного потока : Да
Отключение кэша аудио : Да
Использование указателей C2 : Нет
Коррекция смещения при чтении : 6
Способность читать области Lead-in и Lead-out : Нет
Заполнение пропущенных сэмплов тишиной : Да
Удаление блоков с тишиной в начале и конце : Нет
При вычислениях CRC использовались нулевые сэмплы : Да
Интерфейс : Установленный внешний ASPI-интерфейс
Выходной формат : Внутренние WAV-операции
Формат сэмплов : 44.100 Гц; 16 бит; стерео
TOC извлечённого CD
Трек | Старт | Длительность | Начальный сектор | Конечный сектор
---------------------------------------------------------------------
1 | 0:00.00 | 3:40.31 | 0 | 16530
2 | 3:40.31 | 9:10.22 | 16531 | 57802
3 | 12:50.53 | 8:15.74 | 57803 | 95001
4 | 21:06.52 | 6:34.38 | 95002 | 124589
5 | 27:41.15 | 8:25.10 | 124590 | 162474
6 | 36:06.25 | 4:21.69 | 162475 | 182118
7 | 40:28.19 | 7:55.42 | 182119 | 217785
8 | 48:23.61 | 2:46.23 | 217786 | 230258
Характеристики диапазона извлечения и сообщения об ошибках
Выбранный диапазон
Имя файла F:\My Music\TMP\Tim Berne - Feign.wav
Пиковый уровень 94.3 %
Качество диапазона 100.0 %
CRC копии 105C7D23
Копирование... OK
Ошибок не произошло
Конец отчёта
Any questions -> support@pro-jazz.com. По всем вопросам пишите -> support@pro-jazz.com
09:30
153
Нет комментариев. Ваш будет первым!