Вы используете незарегистрированную версию компонента "Вкладки"!

Поиск

(free jazz, avant-garde) Paul Bley, Gary Peacock, Tony Oxley, John Surman - In The Evenings Out There [ECM 1488] - 1993, FLAC (tracks+.cue), lossless

Треклист:
Paul Bley, Gary Peacock, Tony Oxley, John Surman
In The Evenings Out There
Жанр: free jazz, avant-garde
Страна-производитель диска: Germany
Год издания диска: 1993
Издатель (лейбл): ECM Records
Номер по каталогу: ECM 1488
Аудио кодек: FLAC (*.flac)
Тип рипа: tracks+.cue
Битрейт аудио: lossless
Продолжительность: 00:56:16
Источник (релизер): другой трекер
Наличие сканов в содержимом раздачи: да
Треклист:
01. Afterthoughts
02. Portrait Of A Silence
03. Soft Touch
04. Speak Easy
05. Interface
06. Alignment
07. Fair Share
08. Article Four
09. Married Alive
10. Spe-cu-lay-ting
11. Tomorrow Today
12. Note Police
Исполнители:
Paul Bley · (piano)
Gary Peacock · (bass)
Tony Oxley · (drums)
John Surman · (baritone saxophone, bass clarinet)
 
Лог создания рипа
Exact Audio Copy V0.99 prebeta 5 from 4. May 2009
EAC extraction logfile from 17. September 2010, 23:11
Paul Bley / In The Evenings Out There
Used drive : Optiarc DVD RW AD-7240S Adapter: 3 ID: 1
Read mode : Secure
Utilize accurate stream : Yes
Defeat audio cache : Yes
Make use of C2 pointers : No
Read offset correction : 48
Overread into Lead-In and Lead-Out : No
Fill up missing offset samples with silence : Yes
Delete leading and trailing silent blocks : No
Null samples used in CRC calculations : Yes
Used interface : Installed external ASPI interface
Gap handling : Appended to previous track
Used output format : User Defined Encoder
Selected bitrate : 1024 kBit/s
Quality : High
Add ID3 tag : No
Command line compressor : C:\Program Files\Exact Audio Copy\Flac\flac.exe
Additional command line options : -8 -V -T "ARTIST=%a" -T "TITLE=%t" -T "ALBUM=%g" -T "DATE=%y" -T "TRACKNUMBER=%n" -T "TOTALTRACKS=%x" -T "GENRE=%m" -T "ALBUMARTIST=%v" -T "ALBUM ARTIST=%v" -T "COMMENT=EAC Secure Mode, Test & Copy, AccurateRip, FLAC -8" %s
TOC of the extracted CD
Track | Start | Length | Start sector | End sector
---------------------------------------------------------
1 | 0:00.00 | 4:05.68 | 0 | 18442
2 | 4:05.68 | 5:58.02 | 18443 | 45294
3 | 10:03.70 | 3:42.10 | 45295 | 61954
4 | 13:46.05 | 2:47.25 | 61955 | 74504
5 | 16:33.30 | 5:22.63 | 74505 | 98717
6 | 21:56.18 | 3:50.35 | 98718 | 116002
7 | 25:46.53 | 6:03.72 | 116003 | 143299
8 | 31:50.50 | 8:28.13 | 143300 | 181412
9 | 40:18.63 | 4:17.52 | 181413 | 200739
10 | 44:36.40 | 1:26.30 | 200740 | 207219
11 | 46:02.70 | 2:19.48 | 207220 | 217692
12 | 48:22.43 | 7:54.32 | 217693 | 253274
Track 1
Filename F:\MY RIPS\01 - Afterthoughts.wav
Pre-gap length 0:00:02.00
Peak level 71.6 %
Track quality 100.0 %
Test CRC 61283FB0
Copy CRC 61283FB0
Accurately ripped (confidence 2) [2C9EF148]
Copy OK
Track 2
Filename F:\MY RIPS\02 - Portrait Of A Silence.wav
Pre-gap length 0:00:01.63
Peak level 68.9 %
Track quality 100.0 %
Test CRC 30D406E7
Copy CRC 30D406E7
Accurately ripped (confidence 2) [8537DB6A]
Copy OK
Track 3
Filename F:\MY RIPS\03 - Soft Touch.wav
Pre-gap length 0:00:02.28
Peak level 73.5 %
Track quality 99.9 %
Test CRC 7BD9ECA6
Copy CRC 7BD9ECA6
Accurately ripped (confidence 2) [B34B069D]
Copy OK
Track 4
Filename F:\MY RIPS\04 - Speak Easy.wav
Pre-gap length 0:00:03.38
Peak level 78.1 %
Track quality 100.0 %
Test CRC 811AE38D
Copy CRC 811AE38D
Accurately ripped (confidence 2) [73097562]
Copy OK
Track 5
Filename F:\MY RIPS\05 - Interface.wav
Pre-gap length 0:00:02.55
Peak level 62.4 %
Track quality 100.0 %
Test CRC F79728A5
Copy CRC F79728A5
Accurately ripped (confidence 2) [C6EFF806]
Copy OK
Track 6
Filename F:\MY RIPS\06 - Aligment.wav
Pre-gap length 0:00:03.20
Peak level 75.3 %
Track quality 99.9 %
Test CRC 0A5DFEE0
Copy CRC 0A5DFEE0
Accurately ripped (confidence 2) [F8075C3A]
Copy OK
Track 7
Filename F:\MY RIPS\07 - Fair Share.wav
Pre-gap length 0:00:02.50
Peak level 98.1 %
Track quality 100.0 %
Test CRC 310D2469
Copy CRC 310D2469
Accurately ripped (confidence 2) [6533509D]
Copy OK
Track 8
Filename F:\MY RIPS\08 - Article Four.wav
Pre-gap length 0:00:02.68
Peak level 98.3 %
Track quality 100.0 %
Test CRC F92718FB
Copy CRC F92718FB
Accurately ripped (confidence 2) [240CCD94]
Copy OK
Track 9
Filename F:\MY RIPS\09 - Married Alive.wav
Pre-gap length 0:00:01.40
Peak level 69.8 %
Track quality 99.9 %
Test CRC D4A3596A
Copy CRC D4A3596A
Accurately ripped (confidence 2) [26F9541E]
Copy OK
Track 10
Filename F:\MY RIPS\10 - Spe-cu-lay-ting.wav
Pre-gap length 0:00:02.55
Peak level 99.9 %
Track quality 100.0 %
Test CRC 7CF63A72
Copy CRC 7CF63A72
Accurately ripped (confidence 2) [BF8E625D]
Copy OK
Track 11
Filename F:\MY RIPS\11 - Tomorrow Today.wav
Pre-gap length 0:00:02.23
Peak level 66.2 %
Track quality 100.0 %
Test CRC 05265C2B
Copy CRC 05265C2B
Accurately ripped (confidence 2) [CCFF31DB]
Copy OK
Track 12
Filename F:\MY RIPS\12 - Note Police.wav
Pre-gap length 0:00:03.63
Peak level 69.8 %
Track quality 100.0 %
Test CRC 724B99A6
Copy CRC 724B99A6
Accurately ripped (confidence 2) [FB430993]
Copy OK
All tracks accurately ripped
No errors occurred
End of status report
 
Содержание индексной карты (.cue)
REM GENRE Jazz
REM DATE 1991
REM DISCID B00D310C
REM COMMENT "ExactAudioCopy v0.99pb5"
PERFORMER "Paul Bley"
TITLE "In The Evenings Out There"
FILE "01 - Afterthoughts.wav" WAVE
TRACK 01 AUDIO
TITLE "Afterthoughts"
PERFORMER "Paul Bley"
INDEX 01 00:00:00
TRACK 02 AUDIO
TITLE "Portrait Of A Silence"
PERFORMER "Paul Bley"
INDEX 00 04:04:05
FILE "02 - Portrait Of A Silence.wav" WAVE
INDEX 01 00:00:00
TRACK 03 AUDIO
TITLE "Soft Touch"
PERFORMER "Paul Bley"
INDEX 00 05:55:49
FILE "03 - Soft Touch.wav" WAVE
INDEX 01 00:00:00
TRACK 04 AUDIO
TITLE "Speak Easy"
PERFORMER "Paul Bley"
INDEX 00 03:38:47
FILE "04 - Speak Easy.wav" WAVE
INDEX 01 00:00:00
TRACK 05 AUDIO
TITLE "Interface"
PERFORMER "Paul Bley"
INDEX 00 02:44:45
FILE "05 - Interface.wav" WAVE
INDEX 01 00:00:00
TRACK 06 AUDIO
TITLE "Aligment"
PERFORMER "Paul Bley"
INDEX 00 05:19:43
FILE "06 - Aligment.wav" WAVE
INDEX 01 00:00:00
TRACK 07 AUDIO
TITLE "Fair Share"
PERFORMER "Paul Bley"
INDEX 00 03:47:60
FILE "07 - Fair Share.wav" WAVE
INDEX 01 00:00:00
TRACK 08 AUDIO
TITLE "Article Four"
PERFORMER "Paul Bley"
INDEX 00 06:01:04
FILE "08 - Article Four.wav" WAVE
INDEX 01 00:00:00
TRACK 09 AUDIO
TITLE "Married Alive"
PERFORMER "Paul Bley"
INDEX 00 08:26:48
FILE "09 - Married Alive.wav" WAVE
INDEX 01 00:00:00
TRACK 10 AUDIO
TITLE "Spe-cu-lay-ting"
PERFORMER "Paul Bley"
INDEX 00 04:14:72
FILE "10 - Spe-cu-lay-ting.wav" WAVE
INDEX 01 00:00:00
TRACK 11 AUDIO
TITLE "Tomorrow Today"
PERFORMER "Paul Bley"
INDEX 00 01:24:07
FILE "11 - Tomorrow Today.wav" WAVE
INDEX 01 00:00:00
TRACK 12 AUDIO
TITLE "Note Police"
PERFORMER "Paul Bley"
INDEX 00 02:15:60
FILE "12 - Note Police.wav" WAVE
INDEX 01 00:00:00
Any questions -> support@pro-jazz.com. По всем вопросам пишите -> support@pro-jazz.com
05:43
151
Нет комментариев. Ваш будет первым!