Поиск

(Free Jazz, Avant-Garde) Paul Bley - 7 albums - 1970/2001, FLAC (image + .cue), lossless

(Free Jazz, Avant-Garde) Paul Bley - 7 albums - 1970/2001, FLAC (image + .cue), lossless
Треклист:
Paul Bley - 7 albums
Страна: EU
Жанр: Free Jazz, Avant-Garde
Год выпуска: 1970/2001
Формат: FLAC (image + .cue)
Битрейт аудио: lossless
Трэклист:
Paul Bley - Open, To Love
Год выпуска: 1973
 
Отчет ЕАС
Exact Audio Copy V0.99 prebeta 1 from 25. May 2007
Отчёт EAC об извлечении, выполненном 14. сентября 2007, 16:24
Paul Bley / Open, To Love
Дисковод: PLEXTOR DVDR PX-755A Adapter: 2 ID: 0
Режим чтения : Достоверность
Использование точного потока : Да
Отключение кэша аудио : Да
Использование указателей C2 : Да
Коррекция смещения при чтении : 30
Способность читать области Lead-in и Lead-out : Да
Заполнение пропущенных сэмплов тишиной : Да
Удаление блоков с тишиной в начале и конце : Нет
Интерфейс : Встроенный Win32-интерфейс для Win NT/2000
Выходной формат : Внутренние WAV-операции
Формат сэмплов : 44.100 Гц; 16 бит; стерео
TOC извлечённого CD
Трек | Старт | Длительность | Начальный сектор | Конечный сектор
---------------------------------------------------------------------
1 | 0:00.33 | 5:55.00 | 33 | 26657
2 | 5:55.33 | 7:35.12 | 26658 | 60794
3 | 13:30.45 | 5:21.13 | 60795 | 84882
4 | 18:51.58 | 7:14.00 | 84883 | 117432
5 | 26:05.58 | 3:26.50 | 117433 | 132932
6 | 29:32.33 | 7:25.00 | 132933 | 166307
7 | 36:57.33 | 6:04.50 | 166308 | 193657
Характеристики диапазона извлечения и сообщения об ошибках
Выбранный диапазон
Имя файла D:\Мои документы\Моя музыка\APE\Paul Bley - 7 albums\Paul Bley - Open, To Love\Paul Bley - Open, To Love.wav
Пиковый уровень 86.6 %
Качество диапазона 100.0 %
CRC копии 70F033B5
Копирование... OK
AccurateRip: сводка
Трек 1 нет в базе данных
Трек 2 нет в базе данных
Трек 3 нет в базе данных
Трек 4 нет в базе данных
Трек 5 нет в базе данных
Трек 6 нет в базе данных
Трек 7 нет в базе данных
Ошибок не произошло
Конец отчёта

01. Closer 05:55
02. Ida Lupino 07:35
03. Started 05:21
04. Open, To Love 07:14
05. Harlem 03:26
06. Seven 07:25
07. Nothing Ever Was, Anyway 06:04
Paul Bley - Time Will Tell
Год выпуска: 1995
 
Отчет ЕАС
Exact Audio Copy V0.99 prebeta 1 from 25. May 2007
Отчёт EAC об извлечении, выполненном 14. сентября 2007, 15:55
Paul Bley / Time Will Tell
Дисковод: PLEXTOR DVDR PX-755A Adapter: 2 ID: 0
Режим чтения : Достоверность
Использование точного потока : Да
Отключение кэша аудио : Да
Использование указателей C2 : Да
Коррекция смещения при чтении : 30
Способность читать области Lead-in и Lead-out : Да
Заполнение пропущенных сэмплов тишиной : Да
Удаление блоков с тишиной в начале и конце : Нет
Интерфейс : Встроенный Win32-интерфейс для Win NT/2000
Выходной формат : Внутренние WAV-операции
Формат сэмплов : 44.100 Гц; 16 бит; стерео
TOC извлечённого CD
Трек | Старт | Длительность | Начальный сектор | Конечный сектор
---------------------------------------------------------------------
1 | 0:00.33 | 17:22.05 | 33 | 78187
2 | 17:22.38 | 4:25.17 | 78188 | 98079
3 | 21:47.55 | 4:49.70 | 98080 | 119824
4 | 26:37.50 | 4:57.58 | 119825 | 142157
5 | 31:35.33 | 5:22.27 | 142158 | 166334
6 | 36:57.60 | 5:30.20 | 166335 | 191104
7 | 42:28.05 | 4:04.68 | 191105 | 209472
8 | 46:32.73 | 3:15.47 | 209473 | 224144
9 | 49:48.45 | 5:43.58 | 224145 | 249927
10 | 55:32.28 | 4:26.25 | 249928 | 269902
11 | 59:58.53 | 7:15.02 | 269903 | 302529
Характеристики диапазона извлечения и сообщения об ошибках
Выбранный диапазон
Имя файла D:\Мои документы\Моя музыка\APE\Paul Bley - 7 albums\Paul Bley - Time Will Tell\Paul Bley - Time Will Tell.wav
Пиковый уровень 99.9 %
Качество диапазона 100.0 %
CRC копии 04A1F4EC
Копирование... OK
AccurateRip: сводка
Трек 1 нет в базе данных
Трек 2 нет в базе данных
Трек 3 нет в базе данных
Трек 4 нет в базе данных
Трек 5 нет в базе данных
Трек 6 нет в базе данных
Трек 7 нет в базе данных
Трек 8 нет в базе данных
Трек 9 нет в базе данных
Трек 10 нет в базе данных
Трек 11 нет в базе данных
Ошибок не произошло
Конец отчёта

01. Poetic Justice 17:22
02. Time Will Tell 04:25
03. Above the Tree Line 04:49
04. You Will, Oscar, You Will 04:57
05. Sprung 05:22
06. No Questions 05:30
07. Vine Laces 04:04
08. Clawback 03:15
09. Marsh Tides 05:43
10. Instance 04:26
11. Burlesque 07:15
Paul Pley With Gary Peacock - Paul Pley With Gary Peacock
Год выпуска: 1970
 
Отчет ЕАС
Exact Audio Copy V0.99 prebeta 1 from 25. May 2007
Отчёт EAC об извлечении, выполненном 14. сентября 2007, 16:10
Paul Pley With Gary Peacock / Paul Pley With Gary Peacock
Дисковод: PLEXTOR DVDR PX-755A Adapter: 2 ID: 0
Режим чтения : Достоверность
Использование точного потока : Да
Отключение кэша аудио : Да
Использование указателей C2 : Да
Коррекция смещения при чтении : 30
Способность читать области Lead-in и Lead-out : Да
Заполнение пропущенных сэмплов тишиной : Да
Удаление блоков с тишиной в начале и конце : Нет
Интерфейс : Встроенный Win32-интерфейс для Win NT/2000
Выходной формат : Внутренние WAV-операции
Формат сэмплов : 44.100 Гц; 16 бит; стерео
TOC извлечённого CD
Трек | Старт | Длительность | Начальный сектор | Конечный сектор
---------------------------------------------------------------------
1 | 0:00.33 | 4:25.52 | 33 | 19959
2 | 4:26.10 | 4:26.35 | 19960 | 39944
3 | 8:52.45 | 3:54.45 | 39945 | 57539
4 | 12:47.15 | 4:18.10 | 57540 | 76899
5 | 17:05.25 | 3:29.08 | 76900 | 92582
6 | 20:34.33 | 4:42.15 | 92583 | 113747
7 | 25:16.48 | 3:27.60 | 113748 | 129332
8 | 28:44.33 | 4:53.55 | 129333 | 151362
Характеристики диапазона извлечения и сообщения об ошибках
Выбранный диапазон
Имя файла D:\Мои документы\Моя музыка\APE\Paul Bley - 7 albums\Paul Pley With Gary Peacock - Paul Pley With Gary Peacock\Paul Pley With Gary Peacock - Paul Pley With Gary Peacock.wav
Пиковый уровень 91.2 %
Качество диапазона 100.0 %
CRC копии F647D5F8
Копирование... OK
AccurateRip: сводка
Трек 1 неточное извлечение (доверие 2) [982FC777], но должно быть [400A7B2F]
Трек 2 неточное извлечение (доверие 2) [7D832B9F], но должно быть [0F23D46F]
Трек 3 неточное извлечение (доверие 2) [391843BF], но должно быть [F69A80B7]
Трек 4 неточное извлечение (доверие 2) [55CB26CB], но должно быть [19453FCB]
Трек 5 неточное извлечение (доверие 2) [AA0B6C58], но должно быть [3DE5B838]
Трек 6 неточное извлечение (доверие 2) [8350DE45], но должно быть [FCB6975D]
Трек 7 неточное извлечение (доверие 2) [9C7D62A2], но должно быть [A5F8EF5A]
Трек 8 нет в базе данных
Не все треки извлечены точно
Конец отчёта

01. Blues 04:25
02. Getting Started 04:26
03. When Will The Blues Leave 03:54
04. Long Ago And Far Away 04:18
05. Moor 03:29
06. Gary 04:42
07. Big Foot 03:27
08. Albert's Love Theme 04:53
Paul Bley - Annette
Год выпуска: 1995
 
Отчет ЕАС
Exact Audio Copy V0.99 prebeta 1 from 25. May 2007
Отчёт EAC об извлечении, выполненном 14. сентября 2007, 16:45
Paul Bley / Annette
Дисковод: PLEXTOR DVDR PX-755A Adapter: 2 ID: 0
Режим чтения : Достоверность
Использование точного потока : Да
Отключение кэша аудио : Да
Использование указателей C2 : Да
Коррекция смещения при чтении : 30
Способность читать области Lead-in и Lead-out : Да
Заполнение пропущенных сэмплов тишиной : Да
Удаление блоков с тишиной в начале и конце : Нет
Интерфейс : Встроенный Win32-интерфейс для Win NT/2000
Выходной формат : Внутренние WAV-операции
Формат сэмплов : 44.100 Гц; 16 бит; стерео
TOC извлечённого CD
Трек | Старт | Длительность | Начальный сектор | Конечный сектор
---------------------------------------------------------------------
1 | 0:00.00 | 5:52.00 | 0 | 26399
2 | 5:52.00 | 8:30.50 | 26400 | 64699
3 | 14:22.50 | 6:26.12 | 64700 | 93661
4 | 20:48.62 | 3:46.00 | 93662 | 110611
5 | 24:34.62 | 4:26.00 | 110612 | 130561
6 | 29:00.62 | 6:47.00 | 130562 | 161086
7 | 35:47.62 | 5:03.00 | 161087 | 183811
8 | 40:50.62 | 6:26.00 | 183812 | 212761
9 | 47:16.62 | 4:26.00 | 212762 | 232711
10 | 51:42.62 | 2:46.00 | 232712 | 245161
11 | 54:28.62 | 8:37.00 | 245162 | 283936
12 | 63:05.62 | 1:45.13 | 283937 | 291824
Характеристики диапазона извлечения и сообщения об ошибках
Выбранный диапазон
Имя файла D:\Мои документы\Моя музыка\APE\Paul Bley - 7 albums\Paul Bley - Annette\Paul Bley - Annette.wav
Пиковый уровень 99.2 %
Качество диапазона 100.0 %
CRC копии 0919A1BA
Копирование... OK
AccurateRip: сводка
Трек 1 нет в базе данных
Трек 2 нет в базе данных
Трек 3 нет в базе данных
Трек 4 нет в базе данных
Трек 5 нет в базе данных
Трек 6 нет в базе данных
Трек 7 нет в базе данных
Трек 8 нет в базе данных
Трек 9 нет в базе данных
Трек 10 нет в базе данных
Трек 11 нет в базе данных
Трек 12 нет в базе данных
Ошибок не произошло
Конец отчёта

01. Touching (take 1) 05:52
02. El Cordobes 08:30
03. Cartoon 06:26
04. Albert's Love Theme 03:46
05. Kid Dynamite 04:26
06. Miracles 06:47
07. Blood (take 1) 05:03
08. Annette 06:26
09. Both 04:26
10. Blood (take 2) 02:46
11. Mister Joy 08:37
12. Touching (take 2) 01:45
Paul Bley - Homage To Carla
Год выпуска: 2001
 
Отчет ЕАС
Exact Audio Copy V0.99 prebeta 1 from 25. May 2007
Отчёт EAC об извлечении, выполненном 14. сентября 2007, 17:19
Paul Bley / Homage To Carla Bley
Дисковод: PLEXTOR DVDR PX-755A Adapter: 2 ID: 0
Режим чтения : Достоверность
Использование точного потока : Да
Отключение кэша аудио : Да
Использование указателей C2 : Да
Коррекция смещения при чтении : 30
Способность читать области Lead-in и Lead-out : Да
Заполнение пропущенных сэмплов тишиной : Да
Удаление блоков с тишиной в начале и конце : Нет
Интерфейс : Встроенный Win32-интерфейс для Win NT/2000
Выходной формат : Внутренние WAV-операции
Формат сэмплов : 44.100 Гц; 16 бит; стерео
TOC извлечённого CD
Трек | Старт | Длительность | Начальный сектор | Конечный сектор
---------------------------------------------------------------------
1 | 0:00.00 | 5:20.27 | 0 | 24026
2 | 5:20.27 | 6:40.00 | 24027 | 54026
3 | 12:00.27 | 6:29.74 | 54027 | 83275
4 | 18:30.26 | 5:15.11 | 83276 | 106911
5 | 23:45.37 | 5:37.00 | 106912 | 132186
6 | 29:22.37 | 3:43.65 | 132187 | 148976
7 | 33:06.27 | 6:52.03 | 148977 | 179879
8 | 39:58.30 | 3:53.72 | 179880 | 197426
9 | 43:52.27 | 1:53.10 | 197427 | 205911
10 | 45:45.37 | 5:07.63 | 205912 | 228999
11 | 50:53.25 | 5:56.66 | 229000 | 255765
Характеристики диапазона извлечения и сообщения об ошибках
Выбранный диапазон
Имя файла D:\Мои документы\Моя музыка\APE\Paul Bley - 7 albums\Paul Bley - Homage To Carla Bley\Paul Bley - Homage To Carla Bley.wav
Пиковый уровень 100.0 %
Качество диапазона 100.0 %
CRC копии C71E7B0E
Копирование... OK
AccurateRip: сводка
Трек 1 нет в базе данных
Трек 2 нет в базе данных
Трек 3 нет в базе данных
Трек 4 нет в базе данных
Трек 5 нет в базе данных
Трек 6 нет в базе данных
Трек 7 нет в базе данных
Трек 8 нет в базе данных
Трек 9 нет в базе данных
Трек 10 нет в базе данных
Трек 11 нет в базе данных
Ошибок не произошло
Конец отчёта

01. Seven 05:20
02. Closer 06:40
03. Olhos De Gato 06:29
04. And Now The Queen 05:15
05. Vahskar 05:37
06. Around Again 03:43
07. Donkey 06:52
08. King Korn 03:53
09. Ictus 01:53
10. Turns 05:07
11. Overtoned 05:56
Paul Bley - Synth Thesis
Год выпуска: 1993
 
Отчет ЕАС
Exact Audio Copy V0.99 prebeta 1 from 25. May 2007
Отчёт EAC об извлечении, выполненном 14. сентября 2007, 17:00
Paul Bley / Synth Thesis
Дисковод: PLEXTOR DVDR PX-755A Adapter: 2 ID: 0
Режим чтения : Достоверность
Использование точного потока : Да
Отключение кэша аудио : Да
Использование указателей C2 : Да
Коррекция смещения при чтении : 30
Способность читать области Lead-in и Lead-out : Да
Заполнение пропущенных сэмплов тишиной : Да
Удаление блоков с тишиной в начале и конце : Нет
Интерфейс : Встроенный Win32-интерфейс для Win NT/2000
Выходной формат : Внутренние WAV-операции
Формат сэмплов : 44.100 Гц; 16 бит; стерео
TOC извлечённого CD
Трек | Старт | Длительность | Начальный сектор | Конечный сектор
---------------------------------------------------------------------
1 | 0:00.00 | 2:51.00 | 0 | 12824
2 | 2:51.00 | 3:39.67 | 12825 | 29316
3 | 6:30.67 | 2:27.00 | 29317 | 40341
4 | 8:57.67 | 4:26.03 | 40342 | 60294
5 | 13:23.70 | 6:34.52 | 60295 | 89896
6 | 19:58.47 | 1:51.23 | 89897 | 98244
7 | 21:49.70 | 3:56.15 | 98245 | 115959
8 | 25:46.10 | 1:19.00 | 115960 | 121884
9 | 27:05.10 | 3:08.52 | 121885 | 136036
10 | 30:13.62 | 2:18.33 | 136037 | 146419
11 | 32:32.20 | 5:08.02 | 146420 | 169521
12 | 37:40.22 | 2:14.70 | 169522 | 179641
13 | 39:55.17 | 4:16.43 | 179642 | 198884
14 | 44:11.60 | 3:11.10 | 198885 | 213219
Характеристики диапазона извлечения и сообщения об ошибках
Выбранный диапазон
Имя файла D:\Мои документы\Моя музыка\APE\Paul Bley - 7 albums\Paul Bley - Synth Thesis\Paul Bley - Synth Thesis.wav
Пиковый уровень 94.4 %
Качество диапазона 100.0 %
CRC копии 1D5FCA27
Копирование... OK
AccurateRip: сводка
Трек 1 нет в базе данных
Трек 2 нет в базе данных
Трек 3 нет в базе данных
Трек 4 нет в базе данных
Трек 5 нет в базе данных
Трек 6 нет в базе данных
Трек 7 нет в базе данных
Трек 8 нет в базе данных
Трек 9 нет в базе данных
Трек 10 нет в базе данных
Трек 11 нет в базе данных
Трек 12 нет в базе данных
Трек 13 нет в базе данных
Трек 14 нет в базе данных
Ошибок не произошло
Конец отчёта

01. Gentle Man 02:51
02. Poetic License 03:39
03. Augumented Ego 02:27
04. Atir 04:26
05. Polygons 06:34
06. Shock Treatment 01:51
07. Cold Fusion 03:56
08. Fuzzy Logic 01:19
09. Still Life 03:08
10. Side Kicks 02:18
11. Major Attitude 05:08
12. Speed Trap 02:14
13. Out of Control 04:16
14. Real Magic 03:11
Paul Bley and Gary Peacock - Partners
Год выпуска: 1989
 
Отчет ЕАС
Exact Audio Copy V0.99 prebeta 1 from 25. May 2007
Отчёт EAC об извлечении, выполненном 14. сентября 2007, 17:40
Paul Bley and Gary Peacock / Partners
Дисковод: PLEXTOR DVDR PX-755A Adapter: 2 ID: 0
Режим чтения : Достоверность
Использование точного потока : Да
Отключение кэша аудио : Да
Использование указателей C2 : Да
Коррекция смещения при чтении : 30
Способность читать области Lead-in и Lead-out : Да
Заполнение пропущенных сэмплов тишиной : Да
Удаление блоков с тишиной в начале и конце : Нет
Интерфейс : Встроенный Win32-интерфейс для Win NT/2000
Выходной формат : Внутренние WAV-операции
Формат сэмплов : 44.100 Гц; 16 бит; стерео
TOC извлечённого CD
Трек | Старт | Длительность | Начальный сектор | Конечный сектор
---------------------------------------------------------------------
1 | 0:00.00 | 6:32.10 | 0 | 29409
2 | 6:32.10 | 2:12.45 | 29410 | 39354
3 | 8:44.55 | 2:13.42 | 39355 | 49371
4 | 10:58.22 | 5:07.18 | 49372 | 72414
5 | 16:05.40 | 4:37.05 | 72415 | 93194
6 | 20:42.45 | 5:33.55 | 93195 | 118224
7 | 26:16.25 | 4:44.65 | 118225 | 139589
8 | 31:01.15 | 2:41.05 | 139590 | 151669
9 | 33:42.20 | 3:31.35 | 151670 | 167529
10 | 37:13.55 | 1:35.62 | 167530 | 174716
11 | 38:49.42 | 11:37.60 | 174717 | 227051
12 | 50:27.27 | 2:11.00 | 227052 | 236876
13 | 52:38.27 | 3:06.45 | 236877 | 250871
14 | 55:44.72 | 2:48.25 | 250872 | 263496
15 | 58:33.22 | 3:08.43 | 263497 | 277639
Характеристики диапазона извлечения и сообщения об ошибках
Выбранный диапазон
Имя файла D:\Мои документы\Моя музыка\APE\Paul Bley - 7 albums\Paul Bley and Gary Peacock - Partners\Paul Bley and Gary Peacock - Partners.wav
Пиковый уровень 100.0 %
Качество диапазона 100.0 %
CRC копии 9D805DF8
Копирование... OK
AccurateRip: сводка
Трек 1 нет в базе данных
Трек 2 нет в базе данных
Трек 3 нет в базе данных
Трек 4 нет в базе данных
Трек 5 нет в базе данных
Трек 6 нет в базе данных
Трек 7 нет в базе данных
Трек 8 нет в базе данных
Трек 9 нет в базе данных
Трек 10 нет в базе данных
Трек 11 нет в базе данных
Трек 12 нет в базе данных
Трек 13 нет в базе данных
Трек 14 нет в базе данных
Трек 15 нет в базе данных
Ошибок не произошло

01. Again Anew 06:32
02. Pleiades Skirt 02:12
03. Octavon 02:13
04. Latin Genetics 05:07
05. Workinoot 04:37
06. Afternoon of a Dawn 05:33
07. Hand in Hand 04:44
08. Satyr Satire 02:41
09. Lull-A-Bye 03:31
10. Twitter Pat 01:35
11. Who's Who Is It? 11:37
12. Gently, Gently 02:11
13. Majestique 03:06
14. Pot Luck 02:48
15. No Pun Intended 03:08
Доп. информация: Подборка альбомов пианиста Пола Блэя, изданных на лэйблах ECM, hatHUT, Universal, Owl, Postcards. Альбомы "Open, To Love", "Time Will Tell", "Paul Pley With Gary Peacock" рипнуты мной с фирменных ЕСМовских дисков и снабжены сканами обложек и буклетов. Остальные четыре альбом рипнуты с CD-R, буклетов и обложек, к сожалению, нет. Но на качестве музыки это никак не отражается
Другие альбомы Пола Блэя на Torrents.ru
Fragments / In The Evenings Out There / Not Two, Not One / Sankt Gerold Variations / The Paul Bley Quartet
Ballads
Tango Palace
My Standard
Footlose
Barrage
Closer
Touching
Приватный:
Нет (DHT включён)
Размер:
1.32 Гб (1,418,651,175 байт) » файлов: 42
Участники:
0 раздают, 0 качают (0 участников всего)
Внешние участники:
2 раздают, 1 качают (3 участников всего) [ Обновить ]
Есть вопросы - пишите личное сообщение пользователю M0p94ok.
22:33
85
Нет комментариев. Ваш будет первым!