Вы используете незарегистрированную версию компонента "Вкладки"!

Поиск

(Free Jazz, Avant-Garde) Other Dimensions In Music w/ Matthew Shipp - Time Is Of The Essence Is Beyond Time - 2000, FLAC (tracks), lossless

(Free Jazz, Avant-Garde) Other Dimensions In Music w/ Matthew Shipp - Time Is Of The Essence Is Beyond Time - 2000, FLAC (tracks), lossless
Треклист:
Other Dimensions In Music w/ Matthew Shipp - Time Is Of The Essence Is Beyond Time
Жанр: Free Jazz, Avant-Garde
Год выпуска диска: 2000
Производитель диска: AUM Fidelity
Аудио кодек: FLAC
Тип рипа: tracks
Битрейт аудио: lossless
Трэклист:
1 > 9.27
2 > 4.25
3 > 7.29
4 > 3.44
5 > 5.17
6 > 23.32
7 > 13.33

Daniel Carter: alto & tenor sax, flute, trumpet
Roy Campbell Jr: trumpet, flugelhorn, pocket trumpet
William Parker: bass
Rashid Bakr: drums
Matthew Shipp: piano
 
скрытый текст
Exact Audio Copy V0.99 prebeta 5 from 4. May 2009
EAC extraction logfile from 23. June 2009, 17:10
Other Dimensions In Music / Time Is Of The Essence Is Beyond Time
Used drive : Optiarc DVD RW AD-7170S Adapter: 5 ID: 0
Read mode : Secure
Utilize accurate stream : Yes
Defeat audio cache : Yes
Make use of C2 pointers : No
Read offset correction : 48
Overread into Lead-In and Lead-Out : No
Fill up missing offset samples with silence : Yes
Delete leading and trailing silent blocks : No
Null samples used in CRC calculations : Yes
Used interface : Installed external ASPI interface
Gap handling : Not detected, thus appended to previous track
Used output format : Internal WAV Routines
Sample format : 44.100 Hz; 16 Bit; Stereo
TOC of the extracted CD
Track | Start | Length | Start sector | End sector
---------------------------------------------------------
1 | 0:00.00 | 9:27.13 | 0 | 42537
2 | 9:27.13 | 4:25.09 | 42538 | 62421
3 | 13:52.22 | 7:29.29 | 62422 | 96125
4 | 21:21.51 | 3:43.70 | 96126 | 112920
5 | 25:05.46 | 5:19.14 | 112921 | 136859
6 | 30:24.60 | 23:32.46 | 136860 | 242805
7 | 53:57.31 | 13:33.29 | 242806 | 303809
Track 1
Filename I:\New Jazz, Improv, Anantgarde\Other Dimensions In Music - Time Is Of The Essence Is Beyond Time\01. Untitled 1.wav
Peak level 98.8 %
Track quality 99.9 %
Copy CRC 0D9672F3
Copy OK
Track 2
Filename I:\New Jazz, Improv, Anantgarde\Other Dimensions In Music - Time Is Of The Essence Is Beyond Time\02. Untitled 2.wav
Peak level 91.7 %
Track quality 100.0 %
Copy CRC B03CAA84
Copy OK
Track 3
Filename I:\New Jazz, Improv, Anantgarde\Other Dimensions In Music - Time Is Of The Essence Is Beyond Time\03. Untitled 3.wav
Peak level 98.8 %
Track quality 100.0 %
Copy CRC 8039153D
Copy OK
Track 4
Filename I:\New Jazz, Improv, Anantgarde\Other Dimensions In Music - Time Is Of The Essence Is Beyond Time\04. Untitled 4.wav
Peak level 74.9 %
Track quality 100.0 %
Copy CRC D6B137F0
Copy OK
Track 5
Filename I:\New Jazz, Improv, Anantgarde\Other Dimensions In Music - Time Is Of The Essence Is Beyond Time\05. Untitled 5.wav
Peak level 98.8 %
Track quality 100.0 %
Copy CRC F63CB007
Copy OK
Track 6
Filename I:\New Jazz, Improv, Anantgarde\Other Dimensions In Music - Time Is Of The Essence Is Beyond Time\06. Untitled 6.wav
Peak level 98.8 %
Track quality 99.9 %
Copy CRC F12102D0
Copy OK
Track 7
Filename I:\New Jazz, Improv, Anantgarde\Other Dimensions In Music - Time Is Of The Essence Is Beyond Time\07. Untitled 7.wav
Peak level 98.8 %
Track quality 100.0 %
Copy CRC 481B9EB2
Copy OK
No errors occurred
End of status report
По всем вопросам пишите личное сообщение пользователю M0p94ok.
17:31
175
Нет комментариев. Ваш будет первым!