Вы используете незарегистрированную версию компонента "Вкладки"!

Поиск

(free jazz, avant-garde, modern creative) [cd] Paul Termos & Misha Mengelberg - Paul Termos Sessions Volume I 2002 [X-OR CD 015], FLAC (tracks+.cue), lossless

(free jazz, avant-garde, modern creative) [cd] Paul Termos & Misha Mengelberg - Paul Termos Sessions Volume I 2002 [X-OR CD 015], FLAC (tracks+.cue), lossless
Треклист:
(free jazz, avant-garde, modern creative) [cd] Paul Termos & Misha Mengelberg - Paul Termos Sessions Volume I 2002 [X-OR CD 015], FLAC (tracks+.cue), lossless


Paul Termos & Misha Mengelberg
Paul Termos Sessions Volume I
Жанр: free jazz, avant-garde, modern creative
Год выпуска: 2002
Издатель (лейбл):X-OR / CD 015
Формат: FLAC (tracks+.cue)
Битрейт аудио: lossless
Продолжительность 01:05:09
Источник: what.cd
Alto Saxophone: Paul Termos
Piano: Misha Mengelberg
Recorded live at Bimhuis, Amsterdam, 24 May 2002

tracks

01 Dag Paul hallo Misha
02 Koekoek
03 Hallo Misha dag Paul Paul
04 Bokkenrijder + I've told every little star
05 Rumboon
06 Trapeze


 
.log
X Lossless Decoder version 20141129 (148.1)
XLD extraction logfile from 2015-02-10 15:30:47 +0100
Paul Termos/Misha Mengelberg / Paul Termos Sessions Volume I - Paul Termos • Misha Mengelberg [X-OR CD 015]
Used drive : TSSTcorp CDDVDW SE-S084D (revision TS01)
Media type : Pressed CD
Ripper mode : XLD Secure Ripper
Disable audio cache : OK for the drive with a cache less than 1375KiB
Make use of C2 pointers : NO
Read offset correction : 6
Max retry count : 100
Gap status : Analyzed, Appended (except HTOA)
TOC of the extracted CD
Track | Start | Length | Start sector | End sector
---------------------------------------------------------
1 | 00:00:00 | 29:36:45 | 0 | 133244
2 | 29:36:45 | 05:00:25 | 133245 | 155769
3 | 34:36:70 | 11:51:52 | 155770 | 209146
4 | 46:28:47 | 09:11:51 | 209147 | 250522
5 | 55:40:23 | 03:39:62 | 250523 | 267009
6 | 59:20:10 | 05:54:73 | 267010 | 293632
AccurateRip Summary (DiscID: 0013fa90-0062e26f-580f4b06)
Track 01 : OK (v1, confidence 1/1)
Track 02 : OK (v1, confidence 1/1)
Track 03 : OK (v1, confidence 1/1)
Track 04 : OK (v1, confidence 1/1)
Track 05 : OK (v1, confidence 1/1)
Track 06 : OK (v1, confidence 1/1)
->All tracks accurately ripped.
All Tracks
Album gain : -3.99 dB
Peak : 1.000000
Statistics
Read error : 0
Jitter error (maybe fixed) : 0
Retry sector count : 0
Damaged sector count : 0
Track 01
Filename : /Volumes/4TB 3/Paul Termos Sessions Volume I - Paul Termos • Misha Mengelberg [X-OR CD 015]/01 Dag Paul hallo Misha.flac
Pre-gap length : 00:02:00
Track gain : -3.91 dB
Peak : 1.000000
CRC32 hash (test run) : 345CAA10
CRC32 hash : 345CAA10
CRC32 hash (skip zero) : CA780995
AccurateRip v1 signature : 25705B07
AccurateRip v2 signature : F6381625
->Accurately ripped (v1, confidence 1/1)
Statistics
Read error : 0
Jitter error (maybe fixed) : 0
Retry sector count : 0
Damaged sector count : 0
Track 02
Filename : /Volumes/4TB 3/Paul Termos Sessions Volume I - Paul Termos • Misha Mengelberg [X-OR CD 015]/02 Koekoek.flac
Track gain : -2.94 dB
Peak : 0.999969
CRC32 hash (test run) : 3828EC0A
CRC32 hash : 3828EC0A
CRC32 hash (skip zero) : 135DC095
AccurateRip v1 signature : 344CAA24
AccurateRip v2 signature : 80ECE7EF
->Accurately ripped (v1, confidence 1/1)
Statistics
Read error : 0
Jitter error (maybe fixed) : 0
Retry sector count : 0
Damaged sector count : 0
Track 03
Filename : /Volumes/4TB 3/Paul Termos Sessions Volume I - Paul Termos • Misha Mengelberg [X-OR CD 015]/03 Hallo Misha dag Paul.flac
Pre-gap length : 00:02:00
Track gain : -4.24 dB
Peak : 1.000000
CRC32 hash (test run) : 166E7D2B
CRC32 hash : 166E7D2B
CRC32 hash (skip zero) : 00644DFE
AccurateRip v1 signature : AE06D72E
AccurateRip v2 signature : CDF66218
->Accurately ripped (v1, confidence 1/1)
Statistics
Read error : 0
Jitter error (maybe fixed) : 0
Retry sector count : 0
Damaged sector count : 0
Track 04
Filename : /Volumes/4TB 3/Paul Termos Sessions Volume I - Paul Termos • Misha Mengelberg [X-OR CD 015]/04 Bokkenrijder + I've told every little star.flac
Track gain : -4.65 dB
Peak : 1.000000
CRC32 hash (test run) : 84DCF48B
CRC32 hash : 84DCF48B
CRC32 hash (skip zero) : 64C212C7
AccurateRip v1 signature : 4D59E806
AccurateRip v2 signature : F764C66F
->Accurately ripped (v1, confidence 1/1)
Statistics
Read error : 0
Jitter error (maybe fixed) : 0
Retry sector count : 0
Damaged sector count : 0
Track 05
Filename : /Volumes/4TB 3/Paul Termos Sessions Volume I - Paul Termos • Misha Mengelberg [X-OR CD 015]/05 Rumboon.flac
Track gain : -5.30 dB
Peak : 1.000000
CRC32 hash (test run) : 5A416E8D
CRC32 hash : 5A416E8D
CRC32 hash (skip zero) : 62440CD3
AccurateRip v1 signature : E8F90472
AccurateRip v2 signature : 8B6F2BFA
->Accurately ripped (v1, confidence 1/1)
Statistics
Read error : 0
Jitter error (maybe fixed) : 0
Retry sector count : 0
Damaged sector count : 0
Track 06
Filename : /Volumes/4TB 3/Paul Termos Sessions Volume I - Paul Termos • Misha Mengelberg [X-OR CD 015]/06 Trapeze.flac
Pre-gap length : 00:05:00
Track gain : -1.37 dB
Peak : 0.955688
CRC32 hash (test run) : 3DBB40AF
CRC32 hash : 3DBB40AF
CRC32 hash (skip zero) : B491943F
AccurateRip v1 signature : 4B6D1E50
AccurateRip v2 signature : A036294E
->Accurately ripped (v1, confidence 1/1)
Statistics
Read error : 0
Jitter error (maybe fixed) : 0
Retry sector count : 0
Damaged sector count : 0
No errors occurred
End of status report
-----BEGIN XLD SIGNATURE-----
cSkDD4UVHljOwRw_.0f4v6xu27C_J07Jb8IhQuG4oOE75CzpwascHJBaO8s3ucjjVdj8Rdhew90umqyS89DM9WmyIpp7YI9rAytrW6a
-----END XLD SIGNATURE-----
 
.cue
TITLE "Paul Termos Sessions Volume I - Paul Termos • Misha Mengelberg [X-OR CD 015]"
PERFORMER "Paul Termos/Misha Mengelberg"
REM GENRE "Free Jazz"
REM DATE "2002"
REM DISCNUMBER 1
REM TOTALDISCS 1
REM DISCID 580F4B06
REM REPLAYGAIN_ALBUM_GAIN -3.99 dB
REM REPLAYGAIN_ALBUM_PEAK 1.000000
FILE "01 Dag Paul hallo Misha.flac" WAVE
TRACK 01 AUDIO
TITLE "Dag Paul hallo Misha"
PERFORMER "Paul Termos/Misha Mengelberg"
SONGWRITER "Paul Termos/Misha Mengelberg"
REM COMMENT "Alto Saxophone: Paul Termos/Piano: Misha Mengelberg. Recorded live at Bimhuis, Amsterdam, 24 May 2002."
REM REPLAYGAIN_TRACK_GAIN -3.91 dB
REM REPLAYGAIN_TRACK_PEAK 1.000000
INDEX 01 00:00:00
FILE "02 Koekoek.flac" WAVE
TRACK 02 AUDIO
TITLE "Koekoek"
PERFORMER "Paul Termos/Misha Mengelberg"
SONGWRITER "Misha Mengelberg"
REM COMMENT "Alto Saxophone: Paul Termos/Piano: Misha Mengelberg. Recorded live at Bimhuis, Amsterdam, 24 May 2002."
REM REPLAYGAIN_TRACK_GAIN -2.94 dB
REM REPLAYGAIN_TRACK_PEAK 0.999969
INDEX 01 00:00:00
TRACK 03 AUDIO
TITLE "Hallo Misha dag Paul"
PERFORMER "Paul Termos/Misha Mengelberg"
SONGWRITER "Paul Termos/Misha Mengelberg"
REM COMMENT "Alto Saxophone: Paul Termos/Piano: Misha Mengelberg. Recorded live at Bimhuis, Amsterdam, 24 May 2002."
REM REPLAYGAIN_TRACK_GAIN -4.24 dB
REM REPLAYGAIN_TRACK_PEAK 1.000000
INDEX 00 04:58:25
FILE "03 Hallo Misha dag Paul.flac" WAVE
INDEX 01 00:00:00
FILE "04 Bokkenrijder + I've told every little star.flac" WAVE
TRACK 04 AUDIO
TITLE "Bokkenrijder + I've told every little star"
PERFORMER "Paul Termos/Misha Mengelberg"
SONGWRITER "Paul Termos - Jerome Kern"
REM COMMENT "Alto Saxophone: Paul Termos/Piano: Misha Mengelberg. Recorded live at Bimhuis, Amsterdam, 24 May 2002."
REM REPLAYGAIN_TRACK_GAIN -4.65 dB
REM REPLAYGAIN_TRACK_PEAK 1.000000
INDEX 01 00:00:00
FILE "05 Rumboon.flac" WAVE
TRACK 05 AUDIO
TITLE "Rumboon"
PERFORMER "Paul Termos/Misha Mengelberg"
SONGWRITER "Misha Mengelberg"
REM COMMENT "Alto Saxophone: Paul Termos/Piano: Misha Mengelberg. Recorded live at Bimhuis, Amsterdam, 24 May 2002."
REM REPLAYGAIN_TRACK_GAIN -5.30 dB
REM REPLAYGAIN_TRACK_PEAK 1.000000
INDEX 01 00:00:00
TRACK 06 AUDIO
TITLE "Trapeze"
PERFORMER "Paul Termos/Misha Mengelberg"
SONGWRITER "Misha Mengelberg/Paul Termos"
REM COMMENT "Alto Saxophone: Paul Termos/Piano: Misha Mengelberg. Recorded live at Bimhuis, Amsterdam, 24 May 2002."
REM REPLAYGAIN_TRACK_GAIN -1.37 dB
REM REPLAYGAIN_TRACK_PEAK 0.955688
INDEX 00 03:34:62
FILE "06 Trapeze.flac" WAVE
INDEX 01 00:00:00

http://www.allmusic.com/album/paul-termos-sessions-vol-1-mw0000571878
другие релизы
По всем вопросам пишите личное сообщение пользователю M0p94ok.
17:58
174
Нет комментариев. Ваш будет первым!