Вы используете незарегистрированную версию компонента "Вкладки"!

Поиск

(Free Jazz, Avant-garde, Modal Jazz) Alice Coltrane - Translinear Light - 2004, FLAC (tracks+.cue), lossless

(Free Jazz, Avant-garde, Modal Jazz) Alice Coltrane - Translinear Light - 2004, FLAC (tracks+.cue), lossless
Треклист:
Alice Coltrane / Translinear Light

Жанр: Free Jazz, Avant-garde, Modal Jazz
Страна-производитель диска: USA
Год издания диска: 2004
Издатель (лейбл): Verve Records
Номер по каталогу: B0002191-02
Страна: USA
Аудиокодек: FLAC (*.flac)
Тип рипа: tracks+.cue
Битрейт аудио: lossless
Продолжительность: 1:13:46
Источник: what.cd
Наличие сканов в содержимом раздачи: нет
Треклист:
01. Sita Ram [6:09]
02. Walk With Me [7:50]
03. Tanslinear Light [9:50]
04. Jagadishwar [5:48]
05. This Train [6:07]
06. The Hymn [3:05]
07. Blue Nile [8:06]
08. Crescent [6:23]
09. Leo [9:41]
10. Triloka [5:08]
11. Satya Sai Isha [5:41]
 
Лог создания рипа
X Lossless Decoder version 20100926 (123.1)
XLD extraction logfile from 2010-10-04 02:17:05 -0700
Alice Coltrane / Translinear Light
Used drive : MATSHITA DVD-R UJ-867 (revision HA13)
Use cdparanoia mode : YES (CDParanoia III 10.2 engine)
Disable audio cache : OK for the drive with cache less than 2750KB
Make use of C2 pointers : NO
Read offset correction : 102
Max retry count : 100
Gap status : Analyzed, Appended
TOC of the extracted CD
Track | Start | Length | Start sector | End sector
---------------------------------------------------------
1 | 00:00:00 | 06:08:52 | 0 | 27651
2 | 06:08:52 | 07:50:13 | 27652 | 62914
3 | 13:58:65 | 09:50:01 | 62915 | 107165
4 | 23:48:66 | 05:47:45 | 107166 | 133235
5 | 29:36:36 | 06:06:53 | 133236 | 160738
6 | 35:43:14 | 03:04:63 | 160739 | 174601
7 | 38:48:02 | 08:05:69 | 174602 | 211045
8 | 46:53:71 | 06:22:52 | 211046 | 239747
9 | 53:16:48 | 09:40:55 | 239748 | 283302
10 | 62:57:28 | 05:08:06 | 283303 | 306408
11 | 68:05:34 | 05:40:50 | 306409 | 331958
All Tracks
Album gain : -0.78 dB
Peak : 1.000000
Track 01
Filename : /Volumes/Seeding/Alice Coltrane - Translinear Light/01 Alice Coltrane - Sita Ram.flac
/Volumes/Seeding/Alice Coltrane - Translinear Light/01 Alice Coltrane - Sita Ram.mp3
Pre-gap length : 00:02:00
Track gain : -0.85 dB
Peak : 0.674683
CRC32 hash (test run) : D7760286
CRC32 hash : D7760286
CRC32 hash (skip zero) : BEF80B90
AccurateRip signature : 7493C1F6
->Accurately ripped! (confidence 26)
Statistics
Read error : 0
Skipped (treated as error) : 0
Edge jitter error (maybe fixed) : 0
Atom jitter error (maybe fixed) : 0
Drift error (maybe fixed) : 0
Dropped bytes error (maybe fixed) : 0
Duplicated bytes error (maybe fixed) : 0
Inconsistency in error sectors : 0
Track 02
Filename : /Volumes/Seeding/Alice Coltrane - Translinear Light/02 Alice Coltrane - Walk With Me.flac
/Volumes/Seeding/Alice Coltrane - Translinear Light/02 Alice Coltrane - Walk With Me.mp3
Pre-gap length : 00:02:06
Track gain : -0.50 dB
Peak : 1.000000
CRC32 hash (test run) : 8A442CB4
CRC32 hash : 8A442CB4
CRC32 hash (skip zero) : A7E813E8
AccurateRip signature : 5EDAE7C7
->Accurately ripped! (confidence 27)
Statistics
Read error : 0
Skipped (treated as error) : 0
Edge jitter error (maybe fixed) : 0
Atom jitter error (maybe fixed) : 0
Drift error (maybe fixed) : 0
Dropped bytes error (maybe fixed) : 0
Duplicated bytes error (maybe fixed) : 0
Inconsistency in error sectors : 0
Track 03
Filename : /Volumes/Seeding/Alice Coltrane - Translinear Light/03 Alice Coltrane - Tanslinear Light.flac
/Volumes/Seeding/Alice Coltrane - Translinear Light/03 Alice Coltrane - Tanslinear Light.mp3
Track gain : -2.03 dB
Peak : 1.000000
CRC32 hash (test run) : CACC8051
CRC32 hash : CACC8051
CRC32 hash (skip zero) : 2CEB0903
AccurateRip signature : CC499433
->Accurately ripped! (confidence 26)
Statistics
Read error : 0
Skipped (treated as error) : 0
Edge jitter error (maybe fixed) : 0
Atom jitter error (maybe fixed) : 0
Drift error (maybe fixed) : 0
Dropped bytes error (maybe fixed) : 0
Duplicated bytes error (maybe fixed) : 0
Inconsistency in error sectors : 0
Track 04
Filename : /Volumes/Seeding/Alice Coltrane - Translinear Light/04 Alice Coltrane - Jagadishwar.flac
/Volumes/Seeding/Alice Coltrane - Translinear Light/04 Alice Coltrane - Jagadishwar.mp3
Track gain : -2.42 dB
Peak : 0.676575
CRC32 hash (test run) : 784F1D15
CRC32 hash : 784F1D15
CRC32 hash (skip zero) : AF7EAB05
AccurateRip signature : 7EFA262D
->Accurately ripped! (confidence 26)
Statistics
Read error : 0
Skipped (treated as error) : 0
Edge jitter error (maybe fixed) : 0
Atom jitter error (maybe fixed) : 0
Drift error (maybe fixed) : 0
Dropped bytes error (maybe fixed) : 0
Duplicated bytes error (maybe fixed) : 0
Inconsistency in error sectors : 0
Track 05
Filename : /Volumes/Seeding/Alice Coltrane - Translinear Light/05 Alice Coltrane - This Train.flac
/Volumes/Seeding/Alice Coltrane - Translinear Light/05 Alice Coltrane - This Train.mp3
Pre-gap length : 00:01:72
Track gain : -0.48 dB
Peak : 0.641602
CRC32 hash (test run) : 34983A9D
CRC32 hash : 34983A9D
CRC32 hash (skip zero) : C9B960B5
AccurateRip signature : 055F2F53
->Accurately ripped! (confidence 26)
Statistics
Read error : 0
Skipped (treated as error) : 0
Edge jitter error (maybe fixed) : 0
Atom jitter error (maybe fixed) : 0
Drift error (maybe fixed) : 0
Dropped bytes error (maybe fixed) : 0
Duplicated bytes error (maybe fixed) : 0
Inconsistency in error sectors : 0
Track 06
Filename : /Volumes/Seeding/Alice Coltrane - Translinear Light/06 Alice Coltrane - The Hymn.flac
/Volumes/Seeding/Alice Coltrane - Translinear Light/06 Alice Coltrane - The Hymn.mp3
Track gain : -0.32 dB
Peak : 0.671967
CRC32 hash (test run) : 84ABC1C4
CRC32 hash : 84ABC1C4
CRC32 hash (skip zero) : 24206EEA
AccurateRip signature : CB083FCD
->Accurately ripped! (confidence 26)
Statistics
Read error : 0
Skipped (treated as error) : 0
Edge jitter error (maybe fixed) : 0
Atom jitter error (maybe fixed) : 0
Drift error (maybe fixed) : 0
Dropped bytes error (maybe fixed) : 0
Duplicated bytes error (maybe fixed) : 0
Inconsistency in error sectors : 0
Track 07
Filename : /Volumes/Seeding/Alice Coltrane - Translinear Light/07 Alice Coltrane - Blue Nile.flac
/Volumes/Seeding/Alice Coltrane - Translinear Light/07 Alice Coltrane - Blue Nile.mp3
Track gain : 0.37 dB
Peak : 0.561066
CRC32 hash (test run) : 05261AB3
CRC32 hash : 05261AB3
CRC32 hash (skip zero) : B46B501C
AccurateRip signature : C892A526
->Accurately ripped! (confidence 26)
Statistics
Read error : 0
Skipped (treated as error) : 0
Edge jitter error (maybe fixed) : 0
Atom jitter error (maybe fixed) : 0
Drift error (maybe fixed) : 0
Dropped bytes error (maybe fixed) : 0
Duplicated bytes error (maybe fixed) : 0
Inconsistency in error sectors : 0
Track 08
Filename : /Volumes/Seeding/Alice Coltrane - Translinear Light/08 Alice Coltrane - Crescent.flac
/Volumes/Seeding/Alice Coltrane - Translinear Light/08 Alice Coltrane - Crescent.mp3
Track gain : -0.74 dB
Peak : 0.565979
CRC32 hash (test run) : 386FDD6D
CRC32 hash : 386FDD6D
CRC32 hash (skip zero) : 9FEFD9E1
AccurateRip signature : CFBC1AC5
->Accurately ripped! (confidence 26)
Statistics
Read error : 0
Skipped (treated as error) : 0
Edge jitter error (maybe fixed) : 0
Atom jitter error (maybe fixed) : 0
Drift error (maybe fixed) : 0
Dropped bytes error (maybe fixed) : 0
Duplicated bytes error (maybe fixed) : 0
Inconsistency in error sectors : 0
Track 09
Filename : /Volumes/Seeding/Alice Coltrane - Translinear Light/09 Alice Coltrane - Leo.flac
/Volumes/Seeding/Alice Coltrane - Translinear Light/09 Alice Coltrane - Leo.mp3
Track gain : -0.61 dB
Peak : 0.682159
CRC32 hash (test run) : 175D25A2
CRC32 hash : 175D25A2
CRC32 hash (skip zero) : A8314BF0
AccurateRip signature : 7CA87416
->Accurately ripped! (confidence 25)
Statistics
Read error : 0
Skipped (treated as error) : 0
Edge jitter error (maybe fixed) : 0
Atom jitter error (maybe fixed) : 0
Drift error (maybe fixed) : 0
Dropped bytes error (maybe fixed) : 0
Duplicated bytes error (maybe fixed) : 0
Inconsistency in error sectors : 0
Track 10
Filename : /Volumes/Seeding/Alice Coltrane - Translinear Light/10 Alice Coltrane - Triloka.flac
/Volumes/Seeding/Alice Coltrane - Translinear Light/10 Alice Coltrane - Triloka.mp3
Pre-gap length : 00:02:19
Track gain : 0.55 dB
Peak : 0.667450
CRC32 hash (test run) : 0C96591F
CRC32 hash : 0C96591F
CRC32 hash (skip zero) : 76A179F9
AccurateRip signature : 68D3240A
->Accurately ripped! (confidence 25)
Statistics
Read error : 0
Skipped (treated as error) : 0
Edge jitter error (maybe fixed) : 0
Atom jitter error (maybe fixed) : 0
Drift error (maybe fixed) : 0
Dropped bytes error (maybe fixed) : 0
Duplicated bytes error (maybe fixed) : 0
Inconsistency in error sectors : 0
Track 11
Filename : /Volumes/Seeding/Alice Coltrane - Translinear Light/11 Alice Coltrane - Satya Sai Isha.flac
/Volumes/Seeding/Alice Coltrane - Translinear Light/11 Alice Coltrane - Satya Sai Isha.mp3
Track gain : 3.16 dB
Peak : 0.445526
CRC32 hash (test run) : 2BE9AD63
CRC32 hash : 2BE9AD63
CRC32 hash (skip zero) : 4DA925D9
AccurateRip signature : F8B29355
->Accurately ripped! (confidence 25)
Statistics
Read error : 0
Skipped (treated as error) : 0
Edge jitter error (maybe fixed) : 0
Atom jitter error (maybe fixed) : 0
Drift error (maybe fixed) : 0
Dropped bytes error (maybe fixed) : 0
Duplicated bytes error (maybe fixed) : 0
Inconsistency in error sectors : 0
No errors occurred
End of status report
 
Содержание индексной карты (.CUE)
TITLE "Translinear Light"
PERFORMER "Alice Coltrane"
CATALOG 0602498619292
REM GENRE "Jazz"
REM DATE 2004
REM DISCID 9D114A0B
PERFORMER "Alice Coltrane"
TITLE "Translinear Light"
FILE "01 Alice Coltrane - Sita Ram.wav" WAVE
TRACK 01 AUDIO
TITLE "Sita Ram"
ISRC USGR10401239
PERFORMER "Alice Coltrane"
INDEX 01 00:00:00
TRACK 02 AUDIO
TITLE "Walk With Me"
ISRC USGR10401240
PERFORMER "Alice Coltrane"
INDEX 00 06:06:46
FILE "02 Alice Coltrane - Walk With Me.wav" WAVE
INDEX 01 00:00:00
FILE "03 Alice Coltrane - Tanslinear Light.wav" WAVE
TRACK 03 AUDIO
TITLE "Tanslinear Light"
ISRC USGR10401241
PERFORMER "Alice Coltrane"
INDEX 01 00:00:00
FILE "04 Alice Coltrane - Jagadishwar.wav" WAVE
TRACK 04 AUDIO
TITLE "Jagadishwar"
ISRC USGR10401242
PERFORMER "Alice Coltrane"
INDEX 01 00:00:00
TRACK 05 AUDIO
TITLE "This Train"
ISRC USGR10401243
PERFORMER "Alice Coltrane"
INDEX 00 05:45:48
FILE "05 Alice Coltrane - This Train.wav" WAVE
INDEX 01 00:00:00
FILE "06 Alice Coltrane - The Hymn.wav" WAVE
TRACK 06 AUDIO
TITLE "The Hymn"
ISRC USGR10401244
PERFORMER "Alice Coltrane"
INDEX 01 00:00:00
FILE "07 Alice Coltrane - Blue Nile.wav" WAVE
TRACK 07 AUDIO
TITLE "Blue Nile"
ISRC USGR10401245
PERFORMER "Alice Coltrane"
INDEX 01 00:00:00
FILE "08 Alice Coltrane - Crescent.wav" WAVE
TRACK 08 AUDIO
TITLE "Crescent"
ISRC USGR10401246
PERFORMER "Alice Coltrane"
INDEX 01 00:00:00
FILE "09 Alice Coltrane - Leo.wav" WAVE
TRACK 09 AUDIO
TITLE "Leo"
ISRC USGR10401247
PERFORMER "Alice Coltrane"
INDEX 01 00:00:00
TRACK 10 AUDIO
TITLE "Triloka"
ISRC USGR10401248
PERFORMER "Alice Coltrane"
INDEX 00 09:38:36
FILE "10 Alice Coltrane - Triloka.wav" WAVE
INDEX 01 00:00:00
FILE "11 Alice Coltrane - Satya Sai Isha.wav" WAVE
TRACK 11 AUDIO
TITLE "Satya Sai Isha"
ISRC USGR10401356
PERFORMER "Alice Coltrane"
INDEX 01 00:00:00
 
Об альбоме
Tracks 1, 3, 9 recorded April 28-29, 2000 at Ocean Way Studio, Hollywood, CA
Tracks 5, 8 recorded February 18, 2004 at Capitol Studios, Hollywood, CA
Tracks 2, 4, 7, 10 recorded April 27-28, 2004 at O'Henry Sound Studios, Burbank, CA
Track 6 recorded June 12, 2004 at Shivani Studios, Woodland Hills, CA
Track 11 recorded April 14, 2002 in The Vedantic Center Mandir, Agoura, CA
 
Музыканты
Alice Coltrane - Wurlitzer, Piano, Synthesizer (all tracks)
Charlie Haden - Bass (3, 5, 8, 10)
James Genus - Bass (2, 4, 7)
Jeff "Tain" Watts - Drums (2, 4, 7)
Jack DeJohnette - Synth Drums, Drums (1, 3, 5, 8, 9)
Ravi Coltrane - Percussion, Soprano & Tenor Saxophone (1, 3, 4, 7-9)
Oran Coltrane - Alto Saxophone (6)
The Sai Anantam Ashram Singers - Vocals (11)
Any questions -> support@pro-jazz.com. По всем вопросам пишите -> support@pro-jazz.com
18:57
303
Нет комментариев. Ваш будет первым!