Вы используете незарегистрированную версию компонента "Вкладки"!

Поиск

(Free Jazz, Avant-garde, Modal Jazz) Alice Coltrane - Ptah, The El Daoud - 1970 (1996 Remaster), FLAC (tracks+.cue), lossless

(Free Jazz, Avant-garde, Modal Jazz) Alice Coltrane - Ptah, The El Daoud - 1970 (1996 Remaster), FLAC (tracks+.cue), lossless
Треклист:
Alice Coltrane / Ptah, The El Daoud

Жанр: Free Jazz, Avant-garde, Modal Jazz
Страна-производитель диска: USA
Год издания диска: 1996
Издатель (лейбл): Impulse!
Номер по каталогу: IMPD-201
Страна: USA
Аудиокодек: FLAC (*.flac)
Тип рипа: tracks+.cue
Битрейт аудио: lossless
Продолжительность: 46:09
Источник: waffles.fm
Наличие сканов в содержимом раздачи: нет
Треклист:
01. Ptah, The El Daoud [14:02]
02. Turiya And Ramakrishna [8:24]
03. Blue Nile [7:08]
04. Mantra [16:36]
 
Лог создания рипа
Exact Audio Copy V0.99 prebeta 3 from 28. July 2007
EAC extraction logfile from 21. March 2008, 16:42
Alice Coltrane / Ptah The El Daoud
Used drive : PIONEER DVD-RW DVR-111D Adapter: 0 ID: 0
Read mode : Secure
Utilize accurate stream : Yes
Defeat audio cache : Yes
Make use of C2 pointers : No
Read offset correction : 48
Overread into Lead-In and Lead-Out : No
Fill up missing offset samples with silence : Yes
Delete leading and trailing silent blocks : No
Null samples used in CRC calculations : Yes
Used interface : Installed external ASPI interface
Gap handling : Appended to previous track
Used output format : Internal WAV Routines
Sample format : 44.100 Hz; 16 Bit; Stereo
TOC of the extracted CD
Track | Start | Length | Start sector | End sector
---------------------------------------------------------
1 | 0:00.00 | 14:02.22 | 0 | 63171
2 | 14:02.22 | 8:23.50 | 63172 | 100946
3 | 22:25.72 | 7:07.65 | 100947 | 133036
4 | 29:33.62 | 16:35.38 | 133037 | 207699
Track 1
Filename C:\Documents and Settings\frank\My Documents\0 NYP\z UPLOAD\ALICE COLTRANE\Ptah The El Daoud\01 01 Ptah, The El Daoud.wav
Pre-gap length 0:00:02.00
Peak level 95.0 %
Track quality 100.0 %
Copy CRC 3D3D71B5
Copy OK
Track 2
Filename C:\Documents and Settings\frank\My Documents\0 NYP\z UPLOAD\ALICE COLTRANE\Ptah The El Daoud\02 02 Turiya And Ramakrishna.wav
Pre-gap length 0:00:02.00
Peak level 95.6 %
Track quality 100.0 %
Copy CRC 5AC11104
Copy OK
Track 3
Filename C:\Documents and Settings\frank\My Documents\0 NYP\z UPLOAD\ALICE COLTRANE\Ptah The El Daoud\03 03 Blue Nile.wav
Pre-gap length 0:00:02.00
Peak level 92.0 %
Track quality 100.0 %
Copy CRC 7CF2C93A
Copy OK
Track 4
Filename C:\Documents and Settings\frank\My Documents\0 NYP\z UPLOAD\ALICE COLTRANE\Ptah The El Daoud\04 04 Mantra.wav
Pre-gap length 0:00:02.00
Peak level 96.3 %
Track quality 100.0 %
Copy CRC F41DF45F
Copy OK
No errors occurred
End of status report
 
Содержание индексной карты (.CUE)
REM DISCID 350AD104
REM COMMENT "ExactAudioCopy v0.99pb3"
PERFORMER "Alice Coltrane"
TITLE "Ptah The El Daoud"
FILE "01 Ptah, The El Daoud.wav" WAVE
TRACK 01 AUDIO
TITLE "01 Ptah, The El Daoud"
PERFORMER "Alice Coltrane"
INDEX 01 00:00:00
TRACK 02 AUDIO
TITLE "02 Turiya And Ramakrishna"
PERFORMER "Alice Coltrane"
INDEX 00 14:00:22
FILE "02 Turiya And Ramakrishna.wav" WAVE
INDEX 01 00:00:00
TRACK 03 AUDIO
TITLE "03 Blue Nile"
PERFORMER "Alice Coltrane"
INDEX 00 08:21:50
FILE "03 Blue Nile.wav" WAVE
INDEX 01 00:00:00
TRACK 04 AUDIO
TITLE "04 Mantra"
PERFORMER "Alice Coltrane"
INDEX 00 07:05:65
FILE "04 Mantra.wav" WAVE
INDEX 01 00:00:00
 
Об издании
Recorded at the Coltrane home studio, Dix Hills, New York on January 26, 1970. Digitally remastered by Erick Labsonat at MCA Music Media Studios using 20-Bit Super Mapping.
 
Музыканты
Alice Coltrane - Harp, Piano
Ron Carter - Bass
Ben Riley - Drums
Chuck Stewart - Occasional Bells
Joe Henderson - Tenor Saxophone, Alto Flute (Left Channel)
Pharoah Sanders - Tenor Saxophone, Alto Flute, Bells
Any questions -> support@pro-jazz.com. По всем вопросам пишите -> support@pro-jazz.com
18:56
300
Нет комментариев. Ваш будет первым!