Вы используете незарегистрированную версию компонента "Вкладки"!

Поиск

( free jazz, avant-garde) Manuel Mengis Gruppe 6 - Into the Barn 2004, FLAC (tracks+.cue), lossless

( free jazz, avant-garde) Manuel Mengis Gruppe 6 - Into the Barn 2004, FLAC (tracks+.cue), lossless
Треклист:


Manuel Mengis Gruppe 6 - Into the Barn 2004

Жанр: free jazz, avant-garde
Год выпуска: 2004
Издатель (лейбл): hatOLOGY 627
Формат: FLAC (tracks+.cue)
Битрейт аудио: lossless
Продолжительность 56`19
Источник: what.cd
Alto Saxophone – Achim Escher
Drums – Lionel Friedli
Electric Bass – Marcel Stalder
Electric Guitar – Flo Stoffner
Tenor Saxophone – Christoph Erb
Trumpet, Composed By – Manuel Mengis

tracks

01 Toni Toni.accurip
01 Toni Toni
02 Suzie And The Ponies
03 Elk
04 Seni


 
.lauCDtect
auCDtect: CD records authenticity detector, version 0.8.2
Copyright (c) 2004 Oleg Berngardt. All rights reserved.
Copyright (c) 2004 Alexander Djourik. All rights reserved.
------------------------------------------------------------
Processing file: [01 Toni Toni.wav]
------------------------------------------------------------
This track looks like CDDA with probability 100%
------------------------------------------------------------
Processing file: [02 Suzie And The Ponies.wav]
------------------------------------------------------------
This track looks like CDDA with probability 100%
------------------------------------------------------------
Processing file: [03 Elk.wav]
------------------------------------------------------------
This track looks like CDDA with probability 100%
------------------------------------------------------------
Processing file: [04 Seni.wav]
------------------------------------------------------------
This track looks like CDDA with probability 99%
------------------------------------------------------------
Final Conclusion:
------------------------------------------------------------
These tracks looks like CDDA with probability 100%
 
.accurip
[CUETools log; Date: 24/01/13 05:07:03; Version: 2.1.4]
[CTDB TOCID: fVdUKidmWwdNLIy9I6hbNKQArbQ-] disk not present in database.
[AccurateRip ID: 000960ef-0025c135-2b0d3204] found.
Track [ CRC | V2 ] Status
01 [8e4ef715|1f8ba223] (0+0/0) No match
02 [bbdcbce1|5e557219] (0+0/0) No match
03 [9576997c|623b54df] (0+0/0) No match
04 [83a8c39e|3a9f5e5c] (0+0/1) No match
Offsetted by -24:
01 [565a3f33] (0/0) No match
02 [a3e289f5] (0/0) No match
03 [bc08f9a1] (0/0) No match
04 [dbc88593] (1/1) Accurately ripped
Track Peak [ CRC32 ] [W/O NULL]
-- 99.0 [E0B6AF05] [09555273]
01 99.0 [30E97DE4] [5061AF9C]
02 99.0 [C646B69C] [4232AD7A]
03 99.0 [3F27401C] [E6990F5A]
04 99.0 [9A50ED98] [ACDC06B4]

другие релизы
Any questions -> support@pro-jazz.com. По всем вопросам пишите -> support@pro-jazz.com
08:20
164
Нет комментариев. Ваш будет первым!