Вы используете незарегистрированную версию компонента "Вкладки"!

Поиск

(Free Jazz, Avant-Garde) Malachi Favors Maghostut - Natural & the Spiritual (Live, 1977) {Aeco Records NECO-003-CD, USA} - 1992, APE (image+.cue) lossless

(Free Jazz, Avant-Garde) Malachi Favors Maghostut - Natural & the Spiritual (Live, 1977) {Aeco Records NECO-003-CD, USA} - 1992, APE (image+.cue) lossless
Треклист:
Malachi Favors Maghostut - Natural & the Spiritual (Live)
Жанр: Free Jazz, Avant-Garde
Страна-производитель диска: USA
Год издания диска: 1992
Издатель (лейбл): Aeco Records
Номер по каталогу: NECO-003-CD
Аудио кодек: APE (*.ape)
Тип рипа: image+.cue
Битрейт аудио: lossless
Продолжительность: 00:49:13
Источник (релизер): basa005
Наличие сканов в содержимом раздачи: да
Треклист:
1. The Procession 3:31
2. Natural And The Spiritual (Working On The Buildings) 8:32
3. Peace Be Unto You 10:26
4. Natural And The Spiritual 6:55
5. Black Man Tripover / Womens Takeover 3:55
6. If'Fin You No's De Way - Sho Us 10:02
7. Keep On Keepin On 5:22
8. Gone 0:28
Personnel:
Credits▼
Artwork By – Kenneth Hunter
Bass [Double] – Brother Malachi Favors Magoustous
Engineer – Scott Pollard
Mastered By – John Peluso
Photography – Chaga Olamina
Original live session April 27, 1977 at The University of Chicago recorded by Scott Pollard-Auralsense, editing John Peluso-Streeterville
The accoustic bass is unamplified.
 
Лог создания рипа (EAC Log)
Exact Audio Copy V1.0 beta 2 from 29. April 2011
EAC extraction logfile from 20. October 2011, 16:08
Malachi Favors Maghostut / Natural and the Spiritual
Used drive : TSSTcorpCDDVDW SE-S204N Adapter: 2 ID: 0
Read mode : Secure
Utilize accurate stream : Yes
Defeat audio cache : Yes
Make use of C2 pointers : No
Read offset correction : 6
Overread into Lead-In and Lead-Out : No
Fill up missing offset samples with silence : Yes
Delete leading and trailing silent blocks : No
Null samples used in CRC calculations : No
Used interface : Native Win32 interface for Win NT & 2000
Used output format : Internal WAV Routines
Sample format : 44.100 Hz; 16 Bit; Stereo
TOC of the extracted CD
Track | Start | Length | Start sector | End sector
---------------------------------------------------------
1 | 0:00.00 | 3:31.07 | 0 | 15831
2 | 3:31.07 | 8:32.00 | 15832 | 54231
3 | 12:03.07 | 10:26.45 | 54232 | 101226
4 | 22:29.52 | 6:55.28 | 101227 | 132379
5 | 29:25.05 | 3:55.07 | 132380 | 150011
6 | 33:20.12 | 10:02.55 | 150012 | 195216
7 | 43:22.67 | 5:22.35 | 195217 | 219401
8 | 48:45.27 | 0:28.45 | 219402 | 221546
Range status and errors
Selected range
Filename C:\avaxhome\Malachi Favors Maghostut - Natural and the Spiritual.wav
Peak level 100.0 %
Extraction speed 6.9 X
Range quality 100.0 %
Copy CRC 11832BE7
Copy OK
No errors occurred
AccurateRip summary
Track 1 not present in database
Track 2 not present in database
Track 3 not present in database
Track 4 not present in database
Track 5 not present in database
Track 6 not present in database
Track 7 not present in database
Track 8 not present in database
None of the tracks are present in the AccurateRip database
End of status report
==== Log checksum A48384D1C4273C0FA1CC22F6C622F8B7656DE24DB9DC86C3286C190C6D54C69F ====
 
Содержание индексной карты (.CUE)
REM GENRE Jazz
REM DATE 1992
REM DISCID 590B8908
REM COMMENT "ExactAudioCopy v1.0b2"
PERFORMER "Malachi Favors Maghostut"
TITLE "Natural and the Spiritual"
FILE "Malachi Favors Maghostut - Natural and the Spiritual.ape" WAVE
TRACK 01 AUDIO
TITLE "the Procession"
PERFORMER "Malachi Favors Maghostut"
INDEX 01 00:00:00
TRACK 02 AUDIO
TITLE "Natural and the Spiritual (working on the buildings)"
PERFORMER "Malachi Favors Maghostut"
INDEX 00 03:28:65
INDEX 01 03:31:07
TRACK 03 AUDIO
TITLE "Peace Be Unto You"
PERFORMER "Malachi Favors Maghostut"
INDEX 01 12:03:07
TRACK 04 AUDIO
TITLE "Natural and the Spiritual"
PERFORMER "Malachi Favors Maghostut"
INDEX 00 22:23:21
INDEX 01 22:29:52
TRACK 05 AUDIO
TITLE "Black Man Tripover/Woman's Takeover"
PERFORMER "Malachi Favors Maghostut"
INDEX 00 29:21:33
INDEX 01 29:25:05
TRACK 06 AUDIO
TITLE "If'fin You No's De Way - Sho Us"
PERFORMER "Malachi Favors Maghostut"
INDEX 01 33:20:12
TRACK 07 AUDIO
TITLE "Keep on Keepin' on"
PERFORMER "Malachi Favors Maghostut"
INDEX 00 43:21:56
INDEX 01 43:22:67
TRACK 08 AUDIO
TITLE "Gone"
PERFORMER "Malachi Favors Maghostut"
INDEX 00 48:42:22
INDEX 01 48:45:27
 
Об альбоме
Pressed and circulated on the Art Ensemble of Chicago’s tiny eponymous imprint, Favor’s sole solo album from 1977 is a mixed medicine bag of aural liniments and nostrums. What it lacks in cohesion and polish, it more than compensates for in the amount of personal intimacy conveyed. Favors rarely had the room to exposit in isolation within the context of the AEC so the chance to hear him away from his colleagues carries even more worth. Like William Parker after him, Favor’s essays on peripheral instruments (hand drums, marimba, zither, whistles, what sounds like a ney) are of lesser appeal than his longhand manipulations on stout-stringed bass. The opening deep pizzicato of “The Procession,” dedicated to deceased drummer Phillip Wilson, wastes no time zeroing in on the kinship shared by Favor’s calloused fingers and their principal agent of expression. “Peace Be Unto You” is even better, an athletic ten plus minute workout speckled with the clink and rattle of bells and chimes hung from the bassist’s limbs. Superb arco work arrives in the album’s final pieces. Favors also employs vocals on occasion. In combination with lambent marimba on the first of two title tracks has voice creates a tone poem saturated with space and tonal color. Lyrics sung on “Womans Takeover” marry mildly misogyny to equal parts anger and humor. All of the pieces appear to have been taped in front of an audience as appreciative applause trail various tracks. What was it Lester Bowie used to say: Great Black Music- Ancient to the Future? The credo certainly holds here.
 
Back
По всем вопросам пишите личное сообщение пользователю M0p94ok.
17:43
171
Нет комментариев. Ваш будет первым!