Вы используете незарегистрированную версию компонента "Вкладки"!

Поиск

(Free-Jazz, Avant-Garde Jazz) Zentralquartett - Careless Love - 1998, FLAC (tracks+.cue) lossless

Треклист:
Zentralquartett - Careless Love
Жанр: Free-Jazz, Avant-Garde Jazz
Страна-производитель диска: Switzerland
Год издания диска: 1998
Издатель (лейбл): Intakt Records
Номер по каталогу: CD 050
Страна: Switzerland
Аудио кодек: FLAC (*.flac)
Тип рипа: tracks+.cue
Битрейт аудио: lossless
Продолжительность: 56:10
Источник (релизер): собственный рип с оригинального диска.
Наличие сканов в содержимом раздачи: да
Треклист:
01. Napf blues (02.44)
02. Sarabande (02.58)
03. Zopf (05.41)
04. Fünf andere miniaturen (08.40)
05. Via Ragusa (04.57)
06. Dinner music (05.37)
07. Together (02.40)
08. Careless love (07.44)
09. Wilhelmshöhe (05.12)
10. Schweineöder elegie (04.28)
11. Säuferblues (04.49)
 
Лог создания рипа
Exact Audio Copy V0.99 prebeta 5 from 4. May 2009
EAC extraction logfile from 4. December 2010, 21:57
Zentralquartett / Careless Love
Used drive : TSSTcorpCDDVDW SH-S222A Adapter: 1 ID: 0
Read mode : Secure
Utilize accurate stream : Yes
Defeat audio cache : Yes
Make use of C2 pointers : No
Read offset correction : 6
Overread into Lead-In and Lead-Out : No
Fill up missing offset samples with silence : Yes
Delete leading and trailing silent blocks : No
Null samples used in CRC calculations : Yes
Used interface : Native Win32 interface for Win NT & 2000
Gap handling : Appended to previous track
Used output format : User Defined Encoder
Selected bitrate : 768 kBit/s
Quality : High
Add ID3 tag : No
Command line compressor : C:\tool\Audio\Exact Audio Copy\FLAC\FLAC.EXE
Additional command line options : -V -8 -T "ARTIST=%a" -T "TITLE=%t" -T "ALBUM=%g" -T "TRACKNUMBER=%n" -T "GENRE=%m" %s
TOC of the extracted CD
Track | Start | Length | Start sector | End sector
---------------------------------------------------------
1 | 0:00.00 | 2:48.62 | 0 | 12661
2 | 2:48.62 | 3:02.00 | 12662 | 26311
3 | 5:50.62 | 5:45.00 | 26312 | 52186
4 | 11:35.62 | 8:44.00 | 52187 | 91486
5 | 20:19.62 | 5:01.00 | 91487 | 114061
6 | 25:20.62 | 5:41.00 | 114062 | 139636
7 | 31:01.62 | 2:44.00 | 139637 | 151936
8 | 33:45.62 | 7:48.00 | 151937 | 187036
9 | 41:33.62 | 5:16.00 | 187037 | 210736
10 | 46:49.62 | 4:32.00 | 210737 | 231136
11 | 51:21.62 | 4:49.13 | 231137 | 252824
Track 1
Filename C:\! RUTRACKER\ru up\Zentralquartett - Careless Love\01 - Napf Blues.wav
Pre-gap length 0:00:02.00
Peak level 91.9 %
Track quality 100.0 %
Test CRC 27F92760
Copy CRC 27F92760
Accurately ripped (confidence 2) [1F773DE0]
Copy OK
Track 2
Filename C:\! RUTRACKER\ru up\Zentralquartett - Careless Love\02 - Sarabande.wav
Pre-gap length 0:00:03.62
Peak level 91.3 %
Track quality 100.0 %
Test CRC B4A15198
Copy CRC B4A15198
Accurately ripped (confidence 2) [E513D4E0]
Copy OK
Track 3
Filename C:\! RUTRACKER\ru up\Zentralquartett - Careless Love\03 - Zopf.wav
Pre-gap length 0:00:03.62
Peak level 92.6 %
Track quality 99.9 %
Test CRC 6366F8FD
Copy CRC 6366F8FD
Accurately ripped (confidence 2) [3E4A0F2B]
Copy OK
Track 4
Filename C:\! RUTRACKER\ru up\Zentralquartett - Careless Love\04 - Fünf andere Miniaturen.wav
Pre-gap length 0:00:03.62
Peak level 91.6 %
Track quality 99.9 %
Test CRC 6D75C215
Copy CRC 6D75C215
Accurately ripped (confidence 2) [892DB412]
Copy OK
Track 5
Filename C:\! RUTRACKER\ru up\Zentralquartett - Careless Love\05 - Via Ragusa.wav
Pre-gap length 0:00:03.62
Peak level 92.0 %
Track quality 100.0 %
Test CRC B7F29ABC
Copy CRC B7F29ABC
Accurately ripped (confidence 2) [D1294D49]
Copy OK
Track 6
Filename C:\! RUTRACKER\ru up\Zentralquartett - Careless Love\06 - Dinner Music.wav
Pre-gap length 0:00:03.62
Peak level 90.9 %
Track quality 100.0 %
Test CRC B5EAF61F
Copy CRC B5EAF61F
Accurately ripped (confidence 2) [14ACF105]
Copy OK
Track 7
Filename C:\! RUTRACKER\ru up\Zentralquartett - Careless Love\07 - Together.wav
Pre-gap length 0:00:03.62
Peak level 92.6 %
Track quality 100.0 %
Test CRC 92BF1025
Copy CRC 92BF1025
Accurately ripped (confidence 2) [71701FF8]
Copy OK
Track 8
Filename C:\! RUTRACKER\ru up\Zentralquartett - Careless Love\08 - Careless Love.wav
Pre-gap length 0:00:03.62
Peak level 91.7 %
Track quality 100.0 %
Test CRC EF6A12E0
Copy CRC EF6A12E0
Accurately ripped (confidence 2) [741D98F5]
Copy OK
Track 9
Filename C:\! RUTRACKER\ru up\Zentralquartett - Careless Love\09 - Wilhelmshöhe.wav
Pre-gap length 0:00:03.62
Peak level 91.8 %
Track quality 100.0 %
Test CRC F5EB4ECD
Copy CRC F5EB4ECD
Accurately ripped (confidence 2) [BEE6E31A]
Copy OK
Track 10
Filename C:\! RUTRACKER\ru up\Zentralquartett - Careless Love\10 - Schweineöder Elegie.wav
Pre-gap length 0:00:03.62
Peak level 91.2 %
Track quality 100.0 %
Test CRC B9FB87A0
Copy CRC B9FB87A0
Accurately ripped (confidence 2) [8C3B79E0]
Copy OK
Track 11
Filename C:\! RUTRACKER\ru up\Zentralquartett - Careless Love\11 - Säuferblues.wav
Pre-gap length 0:00:03.62
Peak level 91.9 %
Track quality 100.0 %
Test CRC A8C8B987
Copy CRC A8C8B987
Accurately ripped (confidence 2) [F78CDCE9]
Copy OK
All tracks accurately ripped
No errors occurred
End of status report
 
Содержание индексной карты (.CUE)
REM GENRE "Free Jazz"
REM DATE 1997
REM DISCID 850D2B0B
REM COMMENT "ExactAudioCopy v0.99pb5"
CATALOG 0000000000000
PERFORMER "Zentralquartett"
TITLE "Careless Love"
FILE "01 - Napf Blues.wav" WAVE
TRACK 01 AUDIO
TITLE "Napf Blues"
PERFORMER "Zentralquartett"
INDEX 01 00:00:00
TRACK 02 AUDIO
TITLE "Sarabande"
PERFORMER "Zentralquartett"
INDEX 00 02:45:00
FILE "02 - Sarabande.wav" WAVE
INDEX 01 00:00:00
TRACK 03 AUDIO
TITLE "Zopf"
PERFORMER "Zentralquartett"
INDEX 00 02:58:13
FILE "03 - Zopf.wav" WAVE
INDEX 01 00:00:00
TRACK 04 AUDIO
TITLE "Fünf andere Miniaturen"
PERFORMER "Zentralquartett"
INDEX 00 05:41:13
FILE "04 - Fünf andere Miniaturen.wav" WAVE
INDEX 01 00:00:00
INDEX 02 01:48:00
INDEX 03 03:36:00
INDEX 04 05:02:00
INDEX 05 06:47:00
TRACK 05 AUDIO
TITLE "Via Ragusa"
PERFORMER "Zentralquartett"
INDEX 00 08:40:13
FILE "05 - Via Ragusa.wav" WAVE
INDEX 01 00:00:00
TRACK 06 AUDIO
TITLE "Dinner Music"
PERFORMER "Zentralquartett"
INDEX 00 04:57:13
FILE "06 - Dinner Music.wav" WAVE
INDEX 01 00:00:00
TRACK 07 AUDIO
TITLE "Together"
PERFORMER "Zentralquartett"
INDEX 00 05:37:13
FILE "07 - Together.wav" WAVE
INDEX 01 00:00:00
TRACK 08 AUDIO
TITLE "Careless Love"
PERFORMER "Zentralquartett"
INDEX 00 02:40:13
FILE "08 - Careless Love.wav" WAVE
INDEX 01 00:00:00
TRACK 09 AUDIO
TITLE "Wilhelmshöhe"
PERFORMER "Zentralquartett"
INDEX 00 07:44:13
FILE "09 - Wilhelmshöhe.wav" WAVE
INDEX 01 00:00:00
TRACK 10 AUDIO
TITLE "Schweineöder Elegie"
PERFORMER "Zentralquartett"
INDEX 00 05:12:13
FILE "10 - Schweineöder Elegie.wav" WAVE
INDEX 01 00:00:00
TRACK 11 AUDIO
TITLE "Säuferblues"
PERFORMER "Zentralquartett"
INDEX 00 04:28:13
FILE "11 - Säuferblues.wav" WAVE
INDEX 01 00:00:00
Доп. информация:
Recorded at RBT-Orchester- und Tonstudio GmbH, Berlin on 14, 15, 16 February 1997.
Cover art by Hans Scheuerecker.
 
Об альбоме (сборнике)
Conrad Bauer, Ulrich Gumpert, Ernst-Ludwig Petrowsky, and Gunter Sommer are old-time collaborators in the German free Jazz scene. Their group, Zentralquartett, is a combination of outstanding European free playing, tempered by Dutch humor. The results are wondrous and, significantly, accessible.
Some highlights from Careless Love:The title piece is played like a drunken donkey, evoking the best of Carla Bley's twisted excursions. The swaggering 'bone of Conrad Bauer, on Careless Love and elsewhere, is joyous, delicious, and raunchy. Similarly, Ulrich Gumpert (who proves himself the best composer of the bunch), contributes a rollicking, woozy "Dinner Music," not unrelated to (yet not derivative of) Bley's tune of the same name. Here, the slobbering trombone against the edgy piano should win converts. Ernst Ludwig -Petrowsky is stunning throughout, and even offers a startlingly exciting free clarinet solo on Bauer's "Zopf." The only detraction is the rare silliness to which the performers sometimes descend. The opening rapping of the collective on "Napf Blues," for example, and the joint singing on Sommer's "Sauferblues," are slight disappointments, but fun nevertheless.
Careless Love succeeds on most counts, and should please most connoisseurs of the avant-garde.
 
Состав
Conrad Bauer - Trombone
Ulrich Gumpert - Piano
Ernst-Ludwig Petrowsky - Alto Saxophone, Flute, Clarinet
Günter Sommer - Drums, Percussion, Bells
По всем вопросам пишите личное сообщение пользователю M0p94ok.
06:16
154
Нет комментариев. Ваш будет первым!