Вы используете незарегистрированную версию компонента "Вкладки"!

Поиск

(Free Jazz, Avant-Garde Jazz) Szilard Mezei Trio - Tisza - 2011, FLAC (tracks+.cue), lossless

(Free Jazz, Avant-Garde Jazz) Szilard Mezei Trio - Tisza - 2011, FLAC (tracks+.cue), lossless
Треклист:
Szilard Mezei Trio / Tisza
Жанр: Free Jazz, Avant-Garde Jazz
Страна-производитель диска: UK
Год издания: 2011
Издатель (лейбл): Slam Productions
Номер по каталогу: SLAMCD 532
Страна: Serbia
Аудиокодек: FLAC (*.flac)
Тип рипа: tracks+.cue
Битрейт аудио: lossless
Продолжительность: 59:35
Источник (релизер): свой фирменный диск
Наличие сканов в содержимом раздачи:
Треклист:
1. Part Menten / Along The Coast 9:23
2. Iszik A Betyar A Csapon / Outlaw Drinks From The Tap 9:30
3. Kaffir Cat 5:17
4. Tisza 7:26
5. Rovas / Notch 7:38
6. (Picture) 5:24
7. Rabenek / Prisoner's Song 6:50
8. Hep 4 6:33
9. Oldalt, Le / Aside, Down 1:30
 
Лог создания рипа
Exact Audio Copy V1.0 beta 3 from 29. August 2011
EAC extraction logfile from 26. February 2013, 0:25
Szilard Mezei Trio / Tisza
Used drive : PIONEER DVD-RW DVR-115D Adapter: 0 ID: 0
Read mode : Secure
Utilize accurate stream : Yes
Defeat audio cache : Yes
Make use of C2 pointers : No
Read offset correction : 48
Overread into Lead-In and Lead-Out : No
Fill up missing offset samples with silence : Yes
Delete leading and trailing silent blocks : No
Null samples used in CRC calculations : Yes
Used interface : Installed external ASPI interface
Gap handling : Appended to previous track
Used output format : User Defined Encoder
Selected bitrate : 896 kBit/s
Quality : High
Add ID3 tag : No
Command line compressor : C:\Program Files\Exact Audio Copy\FLAC\FLAC.EXE
Additional command line options : -6 -V -T "ARTIST=%artist%" -T "TITLE=%title%" -T "ALBUM=%albumtitle%" -T "DATE=%year%" -T "TRACKNUMBER=%tracknr%" -T "GENRE=%genre%" -T "COMMENT=%comment%" -T "BAND=%albuminterpret%" -T "COMPOSER=%composer%" %haslyrics%--tag-from-file=LYRICS="%lyricsfile%"%haslyrics% -T "DISCNUMBER=%cdnumber%" -T "TOTALDISCS=%totalcds%" -T "TOTALTRACKS=%numtracks%" %hascover%--picture="%coverfile%"%hascover% %source% -o %dest%
TOC of the extracted CD
Track | Start | Length | Start sector | End sector
---------------------------------------------------------
1 | 0:00.00 | 9:23.58 | 0 | 42282
2 | 9:23.58 | 9:30.38 | 42283 | 85070
3 | 18:54.21 | 5:17.50 | 85071 | 108895
4 | 24:11.71 | 7:26.55 | 108896 | 142400
5 | 31:38.51 | 7:38.17 | 142401 | 176767
6 | 39:16.68 | 5:24.21 | 176768 | 201088
7 | 44:41.14 | 6:50.57 | 201089 | 231895
8 | 51:31.71 | 6:33.44 | 231896 | 261414
9 | 58:05.40 | 1:30.33 | 261415 | 268197
Track 1
Filename D:\zzz\01 - Part Menten , Along The Coast.wav
Pre-gap length 0:00:02.00
Peak level 90.9 %
Extraction speed 4.6 X
Track quality 99.9 %
Test CRC CD48A142
Copy CRC CD48A142
Track not present in AccurateRip database
Copy OK
Track 2
Filename D:\zzz\02 - Iszik A Betyar A Csapon , Outlaw Drinks From Tap.wav
Pre-gap length 0:00:02.00
Peak level 98.8 %
Extraction speed 5.9 X
Track quality 100.0 %
Test CRC F4E85802
Copy CRC F4E85802
Track not present in AccurateRip database
Copy OK
Track 3
Filename D:\zzz\03 - Kaffir Cat.wav
Pre-gap length 0:00:02.00
Peak level 98.8 %
Extraction speed 5.2 X
Track quality 99.9 %
Test CRC 095EC6BE
Copy CRC 095EC6BE
Track not present in AccurateRip database
Copy OK
Track 4
Filename D:\zzz\04 - Tisza.wav
Pre-gap length 0:00:02.00
Peak level 98.8 %
Extraction speed 6.9 X
Track quality 100.0 %
Test CRC 8C17AEE5
Copy CRC 8C17AEE5
Track not present in AccurateRip database
Copy OK
Track 5
Filename D:\zzz\05 - Rovas , Notch.wav
Pre-gap length 0:00:02.00
Peak level 95.7 %
Extraction speed 5.4 X
Track quality 99.8 %
Test CRC F00AABEF
Copy CRC F00AABEF
Track not present in AccurateRip database
Copy OK
Track 6
Filename D:\zzz\06 - ---Figure---.wav
Pre-gap length 0:00:02.00
Peak level 98.8 %
Extraction speed 7.6 X
Track quality 100.0 %
Test CRC 96972F93
Copy CRC 96972F93
Track not present in AccurateRip database
Copy OK
Track 7
Filename D:\zzz\07 - Rabenek , Prisoner's Song.wav
Pre-gap length 0:00:01.74
Peak level 97.3 %
Extraction speed 8.0 X
Track quality 100.0 %
Test CRC C4830A41
Copy CRC C4830A41
Track not present in AccurateRip database
Copy OK
Track 8
Filename D:\zzz\08 - Hep 4.wav
Pre-gap length 0:00:02.00
Peak level 97.6 %
Extraction speed 8.4 X
Track quality 100.0 %
Test CRC 86CC4495
Copy CRC 86CC4495
Track not present in AccurateRip database
Copy OK
Track 9
Filename D:\zzz\09 - Oldalt, Le , Aside, Down.wav
Pre-gap length 0:00:02.00
Peak level 50.8 %
Extraction speed 6.7 X
Track quality 100.0 %
Test CRC 0F93A9EB
Copy CRC 0F93A9EB
Track not present in AccurateRip database
Copy OK
None of the tracks are present in the AccurateRip database
No errors occurred
End of status report
==== Log checksum CB4E020312D535F697899F80C154723DA41E34FA436E1AF390C5E9F96FEB2AB7 ====
 
Содержание индексной карты (.CUE)
REM GENRE Avantgarde
REM DATE 2011
REM DISCID 7E0DF709
REM COMMENT "ExactAudioCopy v1.0b3"
PERFORMER "Szilard Mezei Trio"
TITLE "Tisza"
FILE "01 - Part Menten , Along The Coast.wav" WAVE
TRACK 01 AUDIO
TITLE "Part Menten / Along The Coast"
PERFORMER "Szilard Mezei Trio"
INDEX 01 00:00:00
TRACK 02 AUDIO
TITLE "Iszik A Betyar A Csapon / Outlaw Drinks From Tap"
PERFORMER "Szilard Mezei Trio"
INDEX 00 09:21:58
FILE "02 - Iszik A Betyar A Csapon , Outlaw Drinks From Tap.wav" WAVE
INDEX 01 00:00:00
TRACK 03 AUDIO
TITLE "Kaffir Cat"
PERFORMER "Szilard Mezei Trio"
INDEX 00 09:28:38
FILE "03 - Kaffir Cat.wav" WAVE
INDEX 01 00:00:00
TRACK 04 AUDIO
TITLE "Tisza"
PERFORMER "Szilard Mezei Trio"
INDEX 00 05:15:50
FILE "04 - Tisza.wav" WAVE
INDEX 01 00:00:00
TRACK 05 AUDIO
TITLE "Rovas / Notch"
PERFORMER "Szilard Mezei Trio"
INDEX 00 07:24:55
FILE "05 - Rovas , Notch.wav" WAVE
INDEX 01 00:00:00
TRACK 06 AUDIO
TITLE "---Figure---"
PERFORMER "Szilard Mezei Trio"
INDEX 00 07:36:17
FILE "06 - ---Figure---.wav" WAVE
INDEX 01 00:00:00
TRACK 07 AUDIO
TITLE "Rabenek / Prisoner's Song"
PERFORMER "Szilard Mezei Trio"
INDEX 00 05:22:22
FILE "07 - Rabenek , Prisoner's Song.wav" WAVE
INDEX 01 00:00:00
TRACK 08 AUDIO
TITLE "Hep 4"
PERFORMER "Szilard Mezei Trio"
INDEX 00 06:48:57
FILE "08 - Hep 4.wav" WAVE
INDEX 01 00:00:00
TRACK 09 AUDIO
TITLE "Oldalt, Le / Aside, Down"
PERFORMER "Szilard Mezei Trio"
INDEX 00 06:31:44
FILE "09 - Oldalt, Le , Aside, Down.wav" WAVE
INDEX 01 00:00:00
 
Лог проверки качества
d:\>d:\aucdtect -d/-m0 d:\zzz\*.wav
auCDtect: CD records authenticity detector, version 0.8.2
Copyright (c) 2004 Oleg Berngardt. All rights reserved.
Copyright (c) 2004 Alexander Djourik. All rights reserved.
------------------------------------------------------------
Processing file: [01. Part Menten - Along The Coast.wav]
------------------------------------------------------------
This track looks like CDDA with probability 100%
------------------------------------------------------------
Processing file: [02. Iszik A Betyar A Csapon - Outlaw Drinks From Tap.wav]
------------------------------------------------------------
This track looks like CDDA with probability 100%
------------------------------------------------------------
Processing file: [03. Kaffir Cat.wav]
------------------------------------------------------------
This track looks like CDDA with probability 100%
------------------------------------------------------------
Processing file: [04. Tisza.wav]
------------------------------------------------------------
This track looks like CDDA with probability 100%
------------------------------------------------------------
Processing file: [05. Rovas - Notch.wav]
------------------------------------------------------------
This track looks like CDDA with probability 100%
------------------------------------------------------------
Processing file: [06. ---Figure---.wav]
------------------------------------------------------------
This track looks like CDDA with probability 99%
------------------------------------------------------------
Processing file: [07. Rabenek - Prisoner's Song.wav]
------------------------------------------------------------
This track looks like CDDA with probability 100%
------------------------------------------------------------
Processing file: [08. Hep 4.wav]
------------------------------------------------------------
This track looks like CDDA with probability 100%
------------------------------------------------------------
Processing file: [09. Oldalt, Le - Aside, Down.wav]
------------------------------------------------------------
This track looks like CDDA with probability 100%
------------------------------------------------------------
Final Conclusion:
------------------------------------------------------------
These tracks looks like CDDA with probability 100%
Доп. информация:
 
Album Info, Jazz Alchemist Review
All compositions and arrangements (2,7) by Szilard Mezei
2,7 from the collection: Hungarian folk songs from Vojvodina II, by Aniko Bodor
Recorded 23 & 24 February, 2010 at Studio Vilenjak, Novi Sad, Serbia by Sasa Milankov
Graphic work: Erszebet Mezei
Sponsored by Malom Film-Szinhaz, Jaszbereny, Hungary
Only recently I appreciated Mezei's Wind Quartet release "Innen" on Ayler Records and here's another chance to get acquainted with his music. His long-time working trio is probably the most accessible musical context he works in and is a great point of introduction to Mezei's fusion of jazz and folk (with much less stress on his modern and classical interests shown clearly in the material composed for larger ensembles).
"Tisza" brings a selection of composed tunes heavily tinged with folk sense of melody, jazz sense of pulse and improvisation-derived passion. Earthy yet gracefull sound of viola corresponds to the potent sense of swing. The strong connection between the musicians, forged by the years of playing together, fuels the compositions with instant fire.
Whether it's the dynamic dance (like "Along the Coast" that starts the cd) or nostalgic ballad (like "Outlaw drinks from Tap" that follows) the trio's music is direct, almost straight-forward, filled with a plenty of strong sparking solos by all three players. Mezei's viola can be sharp like a sting, or gentle and subtle, his fierce playing is filled with virtuosic sense dramaturgy. Ervin Malina keeps the harmonic base and holds the music together with strong walking figures, his solos (like the gritty bowed notes on "Prisoner's Song") show considerable skills, sensibility and sense of adventure. Istvan Csik plays light, filling the air with swinging accents on plates and completes that with some classy solo statements, power and grace. In short: Szilard makes the notes sing while the other two keep the rhythms dancing.
This is a fantastic set of folk tunes (although, apart from two Hungarian folk songs, those are contemporary compositions by Szilard). I can easily immagine those being accompanied by a set of stories, folk fairy tales, telling events and adventures of joy, drama, magic, passion, broken hearts and outlaws.
While modern improvised music often creates the feeling of emotional distance and fills thus created gap between the performer and the listenere with intellectual challenges, the music of this trio is down to earth and straight to the body. The sound may be raw but the playing is spirited, vivid, vigorous, vital and filled with gusto. Intense but accessible. Highly recommended.
 
Состав
Szilard Mezei: viola
Ervin Malina: double bass
Istvan Csik: drums, percussion
Any questions -> support@pro-jazz.com. По всем вопросам пишите -> support@pro-jazz.com
09:43
159
Нет комментариев. Ваш будет первым!