Вы используете незарегистрированную версию компонента "Вкладки"!

Поиск

(Free Jazz, Avant-Garde Jazz) Sun Ra & His Myth Science Solar Arkestra - The Antique Blacks - 2009, FLAC (tracks+.cue), lossless

(Free Jazz, Avant-Garde Jazz) Sun Ra & His Myth Science Solar Arkestra - The Antique Blacks - 2009, FLAC (tracks+.cue), lossless
Треклист:
Sun Ra & His Myth Science Solar Arkestra / The Antique Blacks
Жанр: Free Jazz, Avant-Garde Jazz
Год издания диска: 2009
Издатель (лейбл): Art Yard
Номер по каталогу: ARTYARDCD010
Аудиокодек: FLAC (*.flac)
Тип рипа: tracks+.cue
Битрейт аудио: lossless
Продолжительность: 52:25
Источник (релизер): what.cd (deodac)
Наличие сканов в содержимом раздачи: да
Треклист:
1 Song No. 1 (8:51)
2 There is Change in the Air (10:57)
3 The Antique Blacks (3:38)
4 This Song is Dedicated to Nature's God (3:57)
5 The Ridiculous "I" and the Cosmos Me (4:42)
6 Would I for All That Were (2:55)
7 Space is the Place (8:10)
8 You Thought You Could Build a World Without Us (9:10)
 
Лог создания рипа
EAC extraction logfile from 29. November 2009, 13:11 for CD
Sun Ra / The Antique Blacks
Used drive : PBDS CDRWDVD DH-48C2S Adapter: 1 ID: 1
Read mode : Secure with NO C2, accurate stream, disable cache
Read offset correction : 6
Overread into Lead-In and Lead-Out : No
Used output format : C:\Program Files\FLAC\flac.exe (User Defined Encoder)
128 kBit/s
Additional command line options : -V -8 -T "artist=%a" -T "title=%t" -T "album=%g" -T "date=%y" -T "tracknumber=%n" -T "genre=%m" %s
Other options :
Fill up missing offset samples with silence : Yes
Delete leading and trailing silent blocks : No
Native Win32 interface for Win NT & 2000
Track 1
Filename D:\DOWNLOADS\_UPLOADS\Sun Ra - The Antique Blacks (1974) [FLAC]\01 - Song No. 1.wav
Pre-gap length 0:00:02.00
Peak level 96.6 %
Track quality 100.0 %
Test CRC 94CA8475
Copy CRC 94CA8475
Copy OK
Track 2
Filename D:\DOWNLOADS\_UPLOADS\Sun Ra - The Antique Blacks (1974) [FLAC]\02 - Ther Is Change in the Air.wav
Pre-gap length 0:00:01.40
Peak level 96.6 %
Track quality 100.0 %
Test CRC BF278C61
Copy CRC BF278C61
Copy OK
Track 3
Filename D:\DOWNLOADS\_UPLOADS\Sun Ra - The Antique Blacks (1974) [FLAC]\03 - The Antique Blacks.wav
Pre-gap length 0:00:02.68
Peak level 96.6 %
Track quality 99.9 %
Test CRC 842A6B66
Copy CRC 842A6B66
Copy OK
Track 4
Filename D:\DOWNLOADS\_UPLOADS\Sun Ra - The Antique Blacks (1974) [FLAC]\04 - This Song Is Dedicated to Nature's God.wav
Pre-gap length 0:00:01.98
Peak level 96.6 %
Track quality 100.0 %
Test CRC 16420046
Copy CRC 16420046
Copy OK
Track 5
Filename D:\DOWNLOADS\_UPLOADS\Sun Ra - The Antique Blacks (1974) [FLAC]\05 - The Ridiculous 'I' and the Cosmsos Me.wav
Pre-gap length 0:00:02.80
Peak level 96.6 %
Track quality 100.0 %
Test CRC A66D8C93
Copy CRC A66D8C93
Copy OK
Track 6
Filename D:\DOWNLOADS\_UPLOADS\Sun Ra - The Antique Blacks (1974) [FLAC]\06 - Would I for All That Were.wav
Pre-gap length 0:00:02.25
Peak level 96.6 %
Track quality 100.0 %
Test CRC 92D695A5
Copy CRC 92D695A5
Copy OK
Track 7
Filename D:\DOWNLOADS\_UPLOADS\Sun Ra - The Antique Blacks (1974) [FLAC]\07 - Space Is the Place.wav
Pre-gap length 0:00:02.69
Peak level 96.6 %
Track quality 100.0 %
Test CRC F66F4C33
Copy CRC F66F4C33
Copy OK
Track 8
Filename D:\DOWNLOADS\_UPLOADS\Sun Ra - The Antique Blacks (1974) [FLAC]\08 - You Thought You Could Build a World Without Us.wav
Pre-gap length 0:00:03.88
Peak level 81.1 %
Track quality 100.0 %
Test CRC 40CD7908
Copy CRC 40CD7908
Copy OK
No errors occured
End of status report
 
Содержание индексной карты (.CUE)
REM GENRE Jazz
REM DATE 1974
REM DISCID 650C4808
REM COMMENT "ExactAudioCopy v0.95b3"
PERFORMER "Sun Ra"
TITLE "The Antique Blacks"
FILE "01 - Song No. 1.wav" WAVE
TRACK 01 AUDIO
TITLE "Song No. 1"
PERFORMER "Sun Ra"
INDEX 01 00:00:00
TRACK 02 AUDIO
TITLE "Ther Is Change in the Air"
PERFORMER "Sun Ra"
INDEX 00 08:50:03
FILE "02 - Ther Is Change in the Air.wav" WAVE
INDEX 01 00:00:00
TRACK 03 AUDIO
TITLE "The Antique Blacks"
PERFORMER "Sun Ra"
INDEX 00 10:54:72
FILE "03 - The Antique Blacks.wav" WAVE
INDEX 01 00:00:00
TRACK 04 AUDIO
TITLE "This Song Is Dedicated to Nature's God"
PERFORMER "Sun Ra"
INDEX 00 03:36:63
FILE "04 - This Song Is Dedicated to Nature's God.wav" WAVE
INDEX 01 00:00:00
TRACK 05 AUDIO
TITLE "The Ridiculous 'I' and the Cosmsos Me"
PERFORMER "Sun Ra"
INDEX 00 03:55:01
FILE "05 - The Ridiculous 'I' and the Cosmsos Me.wav" WAVE
INDEX 01 00:00:00
TRACK 06 AUDIO
TITLE "Would I for All That Were"
PERFORMER "Sun Ra"
INDEX 00 04:40:20
FILE "06 - Would I for All That Were.wav" WAVE
INDEX 01 00:00:00
TRACK 07 AUDIO
TITLE "Space Is the Place"
PERFORMER "Sun Ra"
INDEX 00 02:53:17
FILE "07 - Space Is the Place.wav" WAVE
INDEX 01 00:00:00
TRACK 08 AUDIO
TITLE "You Thought You Could Build a World Without Us"
PERFORMER "Sun Ra"
INDEX 00 08:06:20
FILE "08 - You Thought You Could Build a World Without Us.wav" WAVE
INDEX 01 00:00:00
Доп. информация:
Originally released on the El Saturn record label, #81774.
Recorded live in Philadelphia August 17th 1974.
Track 8 is a bonus track not on the original Saturn release.
 
Об альбоме (сборнике)
Review from Allmusic: by Sean Westergaard
The Antique Blacks is a great live date, recorded in 1974 but not released until 1978. This is a smallish band, and features the first recorded evidence of prominent electric rock guitar in the Arkestra, attributed only to "Sly." "Song No. 1" is a groovy sort of space bossa nova, with Sun Ra on rocksichord supported by great percussion as the other players join in. "There Is a Change in the Air/The Antique Blacks" is a Ra poem recited with musical accompaniment as is "The Ridiculous 'I' and the Cosmos Me." "This Song Is Dedicated to Nature's God" is actually a different tune than "To Nature's God" on Live in Egypt, Vol. 1, but is the same sort of upbeat, swinging singalong. "Would I for All That Were" is a short interlude with Moog craziness over an ominous march, which leads into a rousing version of "Space Is the Place." The Antique Blacks is notable for the recited poetry, as well as for the presence of the extroverted Sly, who adds a totally new dimension to the Arkestra sound. This one will be tough to find, but well worth it.
 
Состав
Alto Saxophone – Danny Davis
Alto Saxophone, Percussion, Vocals – Marshall Allen
Bassoon, Percussion, Vocals – James Jackson*
Congas – Atakatune
Drums, Vocals – Clifford Jarvis
Electric Guitar – Sly (20)
Engineer [Transferred By], Mastered By – Peter Beckmann
Keyboards [Rocksichord], Synthesizer [Mini Moog], Vocals, Performer [Declamation], Composed By, Arranged By – Sun Ra
Producer [Reissue] – Peter Dennett
Tenor Saxophone, Percussion, Vocals – John Gilmore
Trumpet, Vocals – Akh Tal Ebah
Any questions -> support@pro-jazz.com. По всем вопросам пишите -> support@pro-jazz.com
21:48
233
Нет комментариев. Ваш будет первым!