Вы используете незарегистрированную версию компонента "Вкладки"!

Поиск

(Free Jazz, Avant-Garde Jazz) Sun Ra & His Arkestra - Out There A Minute - 1989, FLAC (tracks+.cue), lossless

(Free Jazz, Avant-Garde Jazz) Sun Ra & His Arkestra - Out There A Minute - 1989, FLAC (tracks+.cue), lossless
Треклист:
Sun Ra & His Arkestra / Out There A Minute
Жанр: Free Jazz, Avant-Garde Jazz
Страна-производитель диска: UK
Год издания: 1989
Издатель (лейбл): Blast First
Номер по каталогу: CD BFFP 42
Страна: US
Аудиокодек: FLAC (*.flac)
Тип рипа: tracks+.cue
Битрейт аудио: lossless
Продолжительность: 68:32
Источник (релизер): waffles.fm, LoveJuice
Наличие сканов в содержимом раздачи:
Треклист:
1 Love In Outer Space 5:03
2 Somewhere In Space 8:07
3 Dark Clouds With Silver Linings 4:53
4 Jazz And Romantic Sounds 4:41
5 When Angels Speak Of Love 4:24
6 Cosmo Enticement 3:05
7 Song Of Tree And Forest 3:08
8 Other Worlds 4:50
9 Journey Outward 4:23
10 Lights Of A Satellite 3:02
11 Starships And Solar Boats 7:32
12 Out There A Minute 3:20
13 Next Stop Mars 11:59
 
Лог создания рипа
Exact Audio Copy V1.0 beta 3 from 29. August 2011
EAC extraction logfile from 24. May 2013, 21:51
Sun Ra and his Arkestra / Out There A Minute
Used drive : TSSTcorpCDDVDW SH-224BB Adapter: 1 ID: 0
Read mode : Secure
Utilize accurate stream : Yes
Defeat audio cache : Yes
Make use of C2 pointers : No
Read offset correction : 6
Overread into Lead-In and Lead-Out : No
Fill up missing offset samples with silence : Yes
Delete leading and trailing silent blocks : No
Null samples used in CRC calculations : Yes
Used interface : Native Win32 interface for Win NT & 2000
Gap handling : Appended to previous track
Used output format : User Defined Encoder
Selected bitrate : 1024 kBit/s
Quality : High
Add ID3 tag : No
Command line compressor : C:\Program Files\Exact Audio Copy\Flac\flac.exe
Additional command line options : -8 -V -T "ARTIST=%artist%" -T "TITLE=%title%" -T "ALBUM=%albumtitle%" -T "DATE=%year%" -T "TRACKNUMBER=%tracknr%" -T "GENRE=%genre%" -T "PERFORMER=%albuminterpret%" -T "COMPOSER=%composer%" %haslyrics%--tag-from-file=LYRICS="%lyricsfile%"%haslyrics% -T "ALBUMARTIST=%albumartist%" -T "DISCNUMBER=%cdnumber%" -T "TOTALDISCS=%totalcds%" -T "TOTALTRACKS=%numtracks%" -T "COMMENT=%comment%" %source% -o %dest%
TOC of the extracted CD
Track | Start | Length | Start sector | End sector
---------------------------------------------------------
1 | 0:00.32 | 5:03.10 | 32 | 22766
2 | 5:03.42 | 8:07.40 | 22767 | 59331
3 | 13:11.07 | 4:53.28 | 59332 | 81334
4 | 18:04.35 | 4:41.12 | 81335 | 102421
5 | 22:45.47 | 4:24.45 | 102422 | 122266
6 | 27:10.17 | 3:05.53 | 122267 | 136194
7 | 30:15.70 | 3:08.17 | 136195 | 150311
8 | 33:24.12 | 4:50.58 | 150312 | 172119
9 | 38:14.70 | 4:23.25 | 172120 | 191869
10 | 42:38.20 | 3:02.72 | 191870 | 205591
11 | 45:41.17 | 7:32.15 | 205592 | 239506
12 | 53:13.32 | 3:20.55 | 239507 | 254561
13 | 56:34.12 | 11:59.05 | 254562 | 308491
Track 1
Filename C:\EAC Rips\Sun Ra - Out There a Minute [FLAC] {BLAST FIRST CD BFFP 42}\01 - Love In Outer Space.wav
Pre-gap length 0:00:02.42
Peak level 99.8 %
Extraction speed 1.9 X
Track quality 99.9 %
Test CRC 2FF6094E
Copy CRC 2FF6094E
Track not present in AccurateRip database
Copy OK
Track 2
Filename C:\EAC Rips\Sun Ra - Out There a Minute [FLAC] {BLAST FIRST CD BFFP 42}\02 - Somewhere In Space.wav
Pre-gap length 0:00:01.60
Peak level 89.8 %
Extraction speed 2.2 X
Track quality 100.0 %
Test CRC 0015D943
Copy CRC 0015D943
Track not present in AccurateRip database
Copy OK
Track 3
Filename C:\EAC Rips\Sun Ra - Out There a Minute [FLAC] {BLAST FIRST CD BFFP 42}\03 - Dark Clouds With Silver Linings.wav
Pre-gap length 0:00:02.60
Peak level 72.4 %
Extraction speed 2.1 X
Track quality 100.0 %
Test CRC 673D8FE1
Copy CRC 673D8FE1
Track not present in AccurateRip database
Copy OK
Track 4
Filename C:\EAC Rips\Sun Ra - Out There a Minute [FLAC] {BLAST FIRST CD BFFP 42}\04 - Jazz And Romantic Sounds.wav
Pre-gap length 0:00:05.30
Peak level 88.9 %
Extraction speed 1.9 X
Track quality 99.9 %
Test CRC B71C9335
Copy CRC B71C9335
Track not present in AccurateRip database
Copy OK
Track 5
Filename C:\EAC Rips\Sun Ra - Out There a Minute [FLAC] {BLAST FIRST CD BFFP 42}\05 - When Angels Speak Of Love.wav
Pre-gap length 0:00:03.06
Peak level 100.0 %
Extraction speed 1.8 X
Track quality 99.9 %
Test CRC F5583692
Copy CRC F5583692
Track not present in AccurateRip database
Copy OK
Track 6
Filename C:\EAC Rips\Sun Ra - Out There a Minute [FLAC] {BLAST FIRST CD BFFP 42}\06 - Cosmo Enticement.wav
Pre-gap length 0:00:01.69
Peak level 58.3 %
Extraction speed 2.0 X
Track quality 100.0 %
Test CRC 77ECF604
Copy CRC 77ECF604
Track not present in AccurateRip database
Copy OK
Track 7
Filename C:\EAC Rips\Sun Ra - Out There a Minute [FLAC] {BLAST FIRST CD BFFP 42}\07 - Song Of Tree And Forest.wav
Pre-gap length 0:00:03.33
Peak level 58.3 %
Extraction speed 1.7 X
Track quality 99.9 %
Test CRC 527A3124
Copy CRC 527A3124
Track not present in AccurateRip database
Copy OK
Track 8
Filename C:\EAC Rips\Sun Ra - Out There a Minute [FLAC] {BLAST FIRST CD BFFP 42}\08 - Other Worlds.wav
Pre-gap length 0:00:02.36
Peak level 100.0 %
Extraction speed 2.1 X
Track quality 100.0 %
Test CRC 2DB75B11
Copy CRC 2DB75B11
Track not present in AccurateRip database
Copy OK
Track 9
Filename C:\EAC Rips\Sun Ra - Out There a Minute [FLAC] {BLAST FIRST CD BFFP 42}\09 - Journey Outward.wav
Pre-gap length 0:00:02.06
Peak level 84.3 %
Extraction speed 2.1 X
Track quality 100.0 %
Test CRC E0E841A1
Copy CRC E0E841A1
Track not present in AccurateRip database
Copy OK
Track 10
Filename C:\EAC Rips\Sun Ra - Out There a Minute [FLAC] {BLAST FIRST CD BFFP 42}\10 - Lights Of A Satellite.wav
Pre-gap length 0:00:02.84
Peak level 56.6 %
Extraction speed 1.9 X
Track quality 100.0 %
Test CRC 4AD13E6E
Copy CRC 4AD13E6E
Track not present in AccurateRip database
Copy OK
Track 11
Filename C:\EAC Rips\Sun Ra - Out There a Minute [FLAC] {BLAST FIRST CD BFFP 42}\11 - Starships And Solar Boats.wav
Pre-gap length 0:00:02.66
Peak level 58.7 %
Extraction speed 2.2 X
Track quality 100.0 %
Test CRC 90EF25AF
Copy CRC 90EF25AF
Track not present in AccurateRip database
Copy OK
Track 12
Filename C:\EAC Rips\Sun Ra - Out There a Minute [FLAC] {BLAST FIRST CD BFFP 42}\12 - Out There A Minute.wav
Pre-gap length 0:00:02.66
Peak level 47.7 %
Extraction speed 2.0 X
Track quality 100.0 %
Test CRC A1A14EA1
Copy CRC A1A14EA1
Track not present in AccurateRip database
Copy OK
Track 13
Filename C:\EAC Rips\Sun Ra - Out There a Minute [FLAC] {BLAST FIRST CD BFFP 42}\13 - Next Stop Mars.wav
Pre-gap length 0:00:00.80
Peak level 87.8 %
Extraction speed 2.2 X
Track quality 100.0 %
Test CRC C86C5763
Copy CRC C86C5763
Track not present in AccurateRip database
Copy OK
None of the tracks are present in the AccurateRip database
No errors occurred
End of status report
==== Log checksum CC13386C7AE76B1AD62442FBDB18CD836748304E624AF05124753D28B6F91544 ====
 
Содержание индексной карты (.CUE)
REM GENRE Jazz
REM DATE 1989
REM DISCID B910110D
REM COMMENT "ExactAudioCopy v1.0b3"
PERFORMER "Sun Ra and his Arkestra"
TITLE "Out There A Minute"
FILE "01 - Love In Outer Space.wav" WAVE
TRACK 01 AUDIO
TITLE "Love In Outer Space"
PERFORMER "Sun Ra and his Arkestra"
PREGAP 00:00:32
INDEX 01 00:00:00
TRACK 02 AUDIO
TITLE "Somewhere In Space"
PERFORMER "Sun Ra and his Arkestra"
INDEX 00 05:01:40
FILE "02 - Somewhere In Space.wav" WAVE
INDEX 01 00:00:00
TRACK 03 AUDIO
TITLE "Dark Clouds With Silver Linings"
PERFORMER "Sun Ra and his Arkestra"
INDEX 00 08:04:70
FILE "03 - Dark Clouds With Silver Linings.wav" WAVE
INDEX 01 00:00:00
TRACK 04 AUDIO
TITLE "Jazz And Romantic Sounds"
PERFORMER "Sun Ra and his Arkestra"
INDEX 00 04:48:05
FILE "04 - Jazz And Romantic Sounds.wav" WAVE
INDEX 01 00:00:00
TRACK 05 AUDIO
TITLE "When Angels Speak Of Love"
PERFORMER "Sun Ra and his Arkestra"
INDEX 00 04:38:07
FILE "05 - When Angels Speak Of Love.wav" WAVE
INDEX 01 00:00:00
TRACK 06 AUDIO
TITLE "Cosmo Enticement"
PERFORMER "Sun Ra and his Arkestra"
INDEX 00 04:22:68
FILE "06 - Cosmo Enticement.wav" WAVE
INDEX 01 00:00:00
TRACK 07 AUDIO
TITLE "Song Of Tree And Forest"
PERFORMER "Sun Ra and his Arkestra"
INDEX 00 03:02:28
FILE "07 - Song Of Tree And Forest.wav" WAVE
INDEX 01 00:00:00
TRACK 08 AUDIO
TITLE "Other Worlds"
PERFORMER "Sun Ra and his Arkestra"
INDEX 00 03:05:65
FILE "08 - Other Worlds.wav" WAVE
INDEX 01 00:00:00
TRACK 09 AUDIO
TITLE "Journey Outward"
PERFORMER "Sun Ra and his Arkestra"
INDEX 00 04:48:53
FILE "09 - Journey Outward.wav" WAVE
INDEX 01 00:00:00
TRACK 10 AUDIO
TITLE "Lights Of A Satellite"
PERFORMER "Sun Ra and his Arkestra"
INDEX 00 04:20:37
FILE "10 - Lights Of A Satellite.wav" WAVE
INDEX 01 00:00:00
TRACK 11 AUDIO
TITLE "Starships And Solar Boats"
PERFORMER "Sun Ra and his Arkestra"
INDEX 00 03:00:22
FILE "11 - Starships And Solar Boats.wav" WAVE
INDEX 01 00:00:00
TRACK 12 AUDIO
TITLE "Out There A Minute"
PERFORMER "Sun Ra and his Arkestra"
INDEX 00 07:29:40
FILE "12 - Out There A Minute.wav" WAVE
INDEX 01 00:00:00
TRACK 13 AUDIO
TITLE "Next Stop Mars"
PERFORMER "Sun Ra and his Arkestra"
INDEX 00 03:19:70
FILE "13 - Next Stop Mars.wav" WAVE
INDEX 01 00:00:00
 
Лог проверки качества
d:\>d:\aucdtect -d/-m0 d:\zzz\*.wav
auCDtect: CD records authenticity detector, version 0.8.2
Copyright (c) 2004 Oleg Berngardt. All rights reserved.
Copyright (c) 2004 Alexander Djourik. All rights reserved.
------------------------------------------------------------
Processing file: [01. Love In Outer Space.wav]
------------------------------------------------------------
This track looks like CDDA with probability 100%
------------------------------------------------------------
Processing file: [02. Somewhere In Space.wav]
------------------------------------------------------------
This track looks like CDDA with probability 100%
------------------------------------------------------------
Processing file: [03. Dark Clouds With Silver Linings.wav]
------------------------------------------------------------
This track looks like CDDA with probability 100%
------------------------------------------------------------
Processing file: [04. Jazz And Romantic Sounds.wav]
------------------------------------------------------------
This track looks like CDDA with probability 100%
------------------------------------------------------------
Processing file: [05. When Angels Speak Of Love.wav]
------------------------------------------------------------
This track looks like CDDA with probability 100%
------------------------------------------------------------
Processing file: [06. Cosmo Enticement.wav]
------------------------------------------------------------
This track looks like CDDA with probability 100%
------------------------------------------------------------
Processing file: [07. Song Of Tree And Forest.wav]
------------------------------------------------------------
This track looks like CDDA with probability 99%
------------------------------------------------------------
Processing file: [08. Other Worlds.wav]
------------------------------------------------------------
This track looks like CDDA with probability 100%
------------------------------------------------------------
Processing file: [09. Journey Outward.wav]
------------------------------------------------------------
This track looks like CDDA with probability 100%
------------------------------------------------------------
Processing file: [10. Lights Of A Satellite.wav]
------------------------------------------------------------
This track looks like CDDA with probability 100%
------------------------------------------------------------
Processing file: [11. Starships And Solar Boats.wav]
------------------------------------------------------------
This track looks like CDDA with probability 100%
------------------------------------------------------------
Processing file: [12. Out There A Minute.wav]
------------------------------------------------------------
This track looks like CDDA with probability 99%
------------------------------------------------------------
Processing file: [13. Next Stop Mars.wav]
------------------------------------------------------------
This track looks like CDDA with probability 100%
------------------------------------------------------------
Final Conclusion:
------------------------------------------------------------
These tracks looks like CDDA with probability 100%
Доп. информация:
 
Album Info, AMG Review
This compact disc comprises Sun Ra's personal selection of rare Arkestra recordings from the late 1960's. Made in and around 42nd Street, New York City, Planet Earth.
The 13 selections on this CD by a small group taken from Sun Ra's Arkestra are generally both explorative and introspective. The combo includes tenor-saxophonist John Gilmore, altoist Marhsall Allen, baritonist Pat Patrick, an occasional trumpeter and trombonist (the personnel is not listed), Ra's organ, piano and primitive electric keyboards plus a bassist, drummer and some percussionists. The performances are mostly short sketches that set spacey moods and then fade out; Ra's piano sounds surprisingly like Thelonious Monk in spots. The odd echo devices and spooky keyboards give this eccentric music much atmosphere. The violent ensemble number "Other Worlds" and the lengthy "Next Stop Mars" are changes of pace (sounding like the 1966 John Coltrane Quintet) while many of the other pieces would work well as soundtracks to a science fiction movie. Although not essential, these futuristic sounds from the past hold one's interest.
Any questions -> support@pro-jazz.com. По всем вопросам пишите -> support@pro-jazz.com
13:54
272
Нет комментариев. Ваш будет первым!