Вы используете незарегистрированную версию компонента "Вкладки"!

Поиск

(Free Jazz, Avant-Garde Jazz) Ornette Coleman - Twins - 1971, APE (image+.cue), lossless

(Free Jazz, Avant-Garde Jazz) Ornette Coleman - Twins - 1971, APE (image+.cue), lossless
Треклист:
Ornette Coleman - Twins
Жанр: Jazz
Стиль: Free Jazz, Avant-Garde Jazz
Recording Date: May 22, 1959-Jan 31, 1961
Original Release Year: 1971
Год выпуска диска: 2004
Label: Warner Bros., 8122736842
Производитель диска: Germany, Warner Music Group Company
Studio / Live: Studio
Mono/Stereo: Stereo
Аудио кодек: APE
Тип рипа: image+.cue
Битрейт аудио: lossless
Продолжительность: 43:08
Трэклист:
1 First Take..................17:06
2 Little Symphony.........5:17
3 Monk and the Nun.....5:56
4 Check Up...................10:13
5 Joy of a Toy................4:55
Состав:
Ornette Coleman (alto sax); Don Cherry (trumpet, pocket trumpet); Scott LaFaro (bass); Billy Higgins (drums); Eric Dolphy (bass clarinet); Freddie Hubbard (trumpet); Charlie Haden (bass); Ed Blackwell (drums)
 
Отчёт EAC
Exact Audio Copy V0.99 prebeta 4 from 23. January 2008
Отчёт EAC об извлечении, выполненном 23. февраля 2009, 9:05
Ornette Coleman / Twins
Дисковод: DVDRW DRW-3S165 Adapter: 1 ID: 0
Режим чтения : Достоверность
Использование точного потока : Да
Отключение кэша аудио : Да
Использование указателей C2 : Нет
Коррекция смещения при чтении : 12
Способность читать области Lead-in и Lead-out : Нет
Заполнение пропущенных сэмплов тишиной : Да
Удаление блоков с тишиной в начале и конце : Нет
При вычислениях CRC использовались нулевые сэмплы : Да
Интерфейс : Установленный внешний ASPI-интерфейс
Выходной формат : Внутренние WAV-операции
Формат сэмплов : 44.100 Гц; 16 бит; стерео
TOC извлечённого CD
Трек | Старт | Длительность | Начальный сектор | Конечный сектор
---------------------------------------------------------------------
1 | 0:00.00 | 16:57.55 | 0 | 76329
2 | 16:57.55 | 5:14.57 | 76330 | 99936
3 | 22:12.37 | 5:52.60 | 99937 | 126396
4 | 28:05.22 | 10:08.13 | 126397 | 172009
5 | 38:13.35 | 4:54.45 | 172010 | 194104
Характеристики диапазона извлечения и сообщения об ошибках
Выбранный диапазон
Имя файла G:\Torrents_Свои раздачи\Ornette Coleman - Twins (1971).wav
Пиковый уровень 99.7 %
Качество диапазона 100.0 %
CRC копии 8699CC35
Копирование... OK
Ошибок не произошло
AccurateRip: сводка
Трек 1 точное извлечение (доверие 4) [8F433924]
Трек 2 точное извлечение (доверие 4) [1B4B2BA8]
Трек 3 точное извлечение (доверие 4) [8E22C244]
Трек 4 точное извлечение (доверие 4) [151263BA]
Трек 5 точное извлечение (доверие 4) [EEADB3BA]
Все треки извлечены точно
Конец отчёта
 
AUDIOCHECKER v2.0 beta (build 457)
AUDIOCHECKER v2.0 beta (build 457) - by Dester - opdester@freemail.hu
-----------------------------------------------------------
Started at: понедельник, 23. 02. 2009. - 9:29.04
1 file found
1 -===- G:\Torrents_Свои раздачи\Ornette Coleman - Twins (1971)\Ornette Coleman - Twins (1971).ape
Extracted successfully
Conclusion: this track is CDDA with probability 100%
Tempfile successfully deleted.
Finished at: понедельник, 23. 02. 2009. - 10:01.21 (operation time: 0:32.16)
Рип сделан с фирменного диска серии Atlantic Masters
Any questions -> support@pro-jazz.com. По всем вопросам пишите -> support@pro-jazz.com
08:27
191
Нет комментариев. Ваш будет первым!