Вы используете незарегистрированную версию компонента "Вкладки"!

Поиск

(Free Jazz, Avant-Garde Jazz, Modern Composition) Brad Dutz, John Fumo, Kim Richmond - The Other Three - 2008, FLAC (tracks+.cue), lossless

(Free Jazz, Avant-Garde Jazz, Modern Composition) Brad Dutz, John Fumo, Kim Richmond - The Other Three - 2008, FLAC (tracks+.cue), lossless
Треклист:
Brad Dutz, John Fumo, Kim Richmond / The Other Three
Жанр: Free Jazz, Avant-Garde Jazz, Modern Composition
Страна-производитель диска: US
Год издания: 2008
Издатель (лейбл): Brad Dutz self-released CD-R
Номер по каталогу: LSCD 043
Страна: US
Аудиокодек: FLAC (*.flac)
Тип рипа: tracks+.cue
Битрейт аудио: lossless
Продолжительность: 73:54
Источник (релизер): свой фирменный диск
Наличие сканов в содержимом раздачи: нет
Треклист:
1 Shelly Manne Tribute 4:44
2 EJ 2:43
3 Machine Five 6:27
4 Flipping Out 4:38
5 Translucent Moon Jellies 6:06
6 Madrakes & Narwals 4:55
7 Jed 3:16
8 Shorty & Jimmy 5:26
9 Silly Accurate Monkeys 5:49
10 Funeral March 7:16
11 Vermin In The Basement 4:16
12 Lillie March 2:55
13 Slender Loris Of Sri Lanka 6:08
14 Flamboyant Pygmy Seahorse 4:46
15 Theodore Hawkins 3:45
 
Лог создания рипа
Exact Audio Copy V1.0 beta 3 from 29. August 2011
EAC extraction logfile from 23. January 2013, 23:47
Brad Dutz, John Fumo, Kim Richmond / The Other Three
Used drive : PIONEER DVD-RW DVR-115D Adapter: 0 ID: 0
Read mode : Secure
Utilize accurate stream : Yes
Defeat audio cache : Yes
Make use of C2 pointers : No
Read offset correction : 48
Overread into Lead-In and Lead-Out : No
Fill up missing offset samples with silence : Yes
Delete leading and trailing silent blocks : No
Null samples used in CRC calculations : Yes
Used interface : Installed external ASPI interface
Gap handling : Appended to previous track
Used output format : User Defined Encoder
Selected bitrate : 896 kBit/s
Quality : High
Add ID3 tag : No
Command line compressor : C:\Program Files\Exact Audio Copy\FLAC\FLAC.EXE
Additional command line options : -6 -V -T "ARTIST=%artist%" -T "TITLE=%title%" -T "ALBUM=%albumtitle%" -T "DATE=%year%" -T "TRACKNUMBER=%tracknr%" -T "GENRE=%genre%" -T "COMMENT=%comment%" -T "BAND=%albuminterpret%" -T "COMPOSER=%composer%" %haslyrics%--tag-from-file=LYRICS="%lyricsfile%"%haslyrics% -T "DISCNUMBER=%cdnumber%" -T "TOTALDISCS=%totalcds%" -T "TOTALTRACKS=%numtracks%" %hascover%--picture="%coverfile%"%hascover% %source% -o %dest%
TOC of the extracted CD
Track | Start | Length | Start sector | End sector
---------------------------------------------------------
1 | 0:00.00 | 4:47.18 | 0 | 21542
2 | 4:47.18 | 2:44.36 | 21543 | 33878
3 | 7:31.54 | 6:30.60 | 33879 | 63188
4 | 14:02.39 | 4:42.73 | 63189 | 84411
5 | 18:45.37 | 6:09.24 | 84412 | 112110
6 | 24:54.61 | 4:57.59 | 112111 | 134444
7 | 29:52.45 | 3:19.20 | 134445 | 149389
8 | 33:11.65 | 5:29.17 | 149390 | 174081
9 | 38:41.07 | 5:51.49 | 174082 | 200455
10 | 44:32.56 | 7:19.06 | 200456 | 233386
11 | 51:51.62 | 4:18.37 | 233387 | 252773
12 | 56:10.24 | 2:58.06 | 252774 | 266129
13 | 59:08.30 | 6:11.19 | 266130 | 293973
14 | 65:19.49 | 4:49.28 | 293974 | 315676
15 | 70:09.02 | 3:45.37 | 315677 | 332588
Track 1
Filename D:\zzz\01 - Shelly Manne Tribute.wav
Pre-gap length 0:00:02.00
Peak level 96.6 %
Extraction speed 4.7 X
Track quality 100.0 %
Test CRC 58C91D09
Copy CRC 58C91D09
Track not present in AccurateRip database
Copy OK
Track 2
Filename D:\zzz\02 - EJ (Improv).wav
Peak level 96.6 %
Extraction speed 4.7 X
Track quality 100.0 %
Test CRC A44F995C
Copy CRC A44F995C
Track not present in AccurateRip database
Copy OK
Track 3
Filename D:\zzz\03 - Machine Five.wav
Peak level 96.6 %
Extraction speed 5.6 X
Track quality 100.0 %
Test CRC 4672A6AD
Copy CRC 4672A6AD
Track not present in AccurateRip database
Copy OK
Track 4
Filename D:\zzz\04 - Flipping Out.wav
Peak level 96.6 %
Extraction speed 5.9 X
Track quality 100.0 %
Test CRC 6148B7F9
Copy CRC 6148B7F9
Track not present in AccurateRip database
Copy OK
Track 5
Filename D:\zzz\05 - Translucent Moon Jellies.wav
Peak level 96.6 %
Extraction speed 6.4 X
Track quality 100.0 %
Test CRC 0C7E483E
Copy CRC 0C7E483E
Track not present in AccurateRip database
Copy OK
Track 6
Filename D:\zzz\06 - Mandrakes & Narwals.wav
Peak level 96.6 %
Extraction speed 6.0 X
Track quality 99.9 %
Test CRC 98BB5C8D
Copy CRC 98BB5C8D
Track not present in AccurateRip database
Copy OK
Track 7
Filename D:\zzz\07 - Jed (Improv).wav
Peak level 96.6 %
Extraction speed 6.6 X
Track quality 100.0 %
Test CRC D5FF1EB4
Copy CRC D5FF1EB4
Track not present in AccurateRip database
Copy OK
Track 8
Filename D:\zzz\08 - Shorty & Jimmy.wav
Peak level 96.6 %
Extraction speed 7.2 X
Track quality 100.0 %
Test CRC E5AE2057
Copy CRC E5AE2057
Track not present in AccurateRip database
Copy OK
Track 9
Filename D:\zzz\09 - Silly Accurate Monkeys.wav
Peak level 96.6 %
Extraction speed 7.6 X
Track quality 100.0 %
Test CRC D97B1EFE
Copy CRC D97B1EFE
Track not present in AccurateRip database
Copy OK
Track 10
Filename D:\zzz\10 - Funeral March.wav
Peak level 96.6 %
Extraction speed 8.0 X
Track quality 100.0 %
Test CRC D25FD69B
Copy CRC D25FD69B
Track not present in AccurateRip database
Copy OK
Track 11
Filename D:\zzz\11 - Vermin In The Basement.wav
Peak level 96.6 %
Extraction speed 7.9 X
Track quality 100.0 %
Test CRC 2B24AC00
Copy CRC 2B24AC00
Track not present in AccurateRip database
Copy OK
Track 12
Filename D:\zzz\12 - Lillie March (Improv).wav
Peak level 96.4 %
Extraction speed 7.6 X
Track quality 100.0 %
Test CRC 424D7339
Copy CRC 424D7339
Track not present in AccurateRip database
Copy OK
Track 13
Filename D:\zzz\13 - Slender Loris Of Sri Lanka.wav
Peak level 58.8 %
Extraction speed 8.6 X
Track quality 100.0 %
Test CRC 52AA04F8
Copy CRC 52AA04F8
Track not present in AccurateRip database
Copy OK
Track 14
Filename D:\zzz\14 - Flamboyant Pygmy Seahorse.wav
Peak level 96.6 %
Extraction speed 8.5 X
Track quality 100.0 %
Test CRC E64B26DA
Copy CRC E64B26DA
Track not present in AccurateRip database
Copy OK
Track 15
Filename D:\zzz\15 - Theodore Hawkins.wav
Peak level 96.6 %
Extraction speed 8.5 X
Track quality 100.0 %
Test CRC 25A82EDD
Copy CRC 25A82EDD
Track not present in AccurateRip database
Copy OK
None of the tracks are present in the AccurateRip database
No errors occurred
End of status report
==== Log checksum 53A16484F464318DD377AD5DB237A87A852DF53489B34F4C4BAECDA2193456D3 ====
 
Содержание индексной карты (.CUE)
REM GENRE Avantgarde
REM DATE 2008
REM DISCID D311520F
REM COMMENT "ExactAudioCopy v1.0b3"
PERFORMER "Brad Dutz, John Fumo, Kim Richmond"
TITLE "The Other Three"
FILE "01 - Shelly Manne Tribute.wav" WAVE
TRACK 01 AUDIO
TITLE "Shelly Manne Tribute"
PERFORMER "Brad Dutz, John Fumo, Kim Richmond"
INDEX 01 00:00:00
FILE "02 - EJ (Improv).wav" WAVE
TRACK 02 AUDIO
TITLE "EJ (Improv)"
PERFORMER "Brad Dutz, John Fumo, Kim Richmond"
INDEX 01 00:00:00
FILE "03 - Machine Five.wav" WAVE
TRACK 03 AUDIO
TITLE "Machine Five"
PERFORMER "Brad Dutz, John Fumo, Kim Richmond"
INDEX 01 00:00:00
FILE "04 - Flipping Out.wav" WAVE
TRACK 04 AUDIO
TITLE "Flipping Out"
PERFORMER "Brad Dutz, John Fumo, Kim Richmond"
INDEX 01 00:00:00
FILE "05 - Translucent Moon Jellies.wav" WAVE
TRACK 05 AUDIO
TITLE "Translucent Moon Jellies"
PERFORMER "Brad Dutz, John Fumo, Kim Richmond"
INDEX 01 00:00:00
FILE "06 - Mandrakes & Narwals.wav" WAVE
TRACK 06 AUDIO
TITLE "Mandrakes & Narwals"
PERFORMER "Brad Dutz, John Fumo, Kim Richmond"
INDEX 01 00:00:00
FILE "07 - Jed (Improv).wav" WAVE
TRACK 07 AUDIO
TITLE "Jed (Improv)"
PERFORMER "Brad Dutz, John Fumo, Kim Richmond"
INDEX 01 00:00:00
FILE "08 - Shorty & Jimmy.wav" WAVE
TRACK 08 AUDIO
TITLE "Shorty & Jimmy"
PERFORMER "Brad Dutz, John Fumo, Kim Richmond"
INDEX 01 00:00:00
FILE "09 - Silly Accurate Monkeys.wav" WAVE
TRACK 09 AUDIO
TITLE "Silly Accurate Monkeys"
PERFORMER "Brad Dutz, John Fumo, Kim Richmond"
INDEX 01 00:00:00
FILE "10 - Funeral March.wav" WAVE
TRACK 10 AUDIO
TITLE "Funeral March"
PERFORMER "Brad Dutz, John Fumo, Kim Richmond"
INDEX 01 00:00:00
FILE "11 - Vermin In The Basement.wav" WAVE
TRACK 11 AUDIO
TITLE "Vermin In The Basement"
PERFORMER "Brad Dutz, John Fumo, Kim Richmond"
INDEX 01 00:00:00
FILE "12 - Lillie March (Improv).wav" WAVE
TRACK 12 AUDIO
TITLE "Lillie March (Improv)"
PERFORMER "Brad Dutz, John Fumo, Kim Richmond"
INDEX 01 00:00:00
FILE "13 - Slender Loris Of Sri Lanka.wav" WAVE
TRACK 13 AUDIO
TITLE "Slender Loris Of Sri Lanka"
PERFORMER "Brad Dutz, John Fumo, Kim Richmond"
INDEX 01 00:00:00
FILE "14 - Flamboyant Pygmy Seahorse.wav" WAVE
TRACK 14 AUDIO
TITLE "Flamboyant Pygmy Seahorse"
PERFORMER "Brad Dutz, John Fumo, Kim Richmond"
INDEX 01 00:00:00
FILE "15 - Theodore Hawkins.wav" WAVE
TRACK 15 AUDIO
TITLE "Theodore Hawkins"
PERFORMER "Brad Dutz, John Fumo, Kim Richmond"
INDEX 01 00:00:00
 
Лог проверки качества
d:\>d:\aucdtect -d/-m0 d:\zzz\*.wav
auCDtect: CD records authenticity detector, version 0.8.2
Copyright (c) 2004 Oleg Berngardt. All rights reserved.
Copyright (c) 2004 Alexander Djourik. All rights reserved.
------------------------------------------------------------
Processing file: [01. Shelly Manne Tribute.wav]
------------------------------------------------------------
This track looks like CDDA with probability 100%
------------------------------------------------------------
Processing file: [02. EJ (Improv).wav]
------------------------------------------------------------
This track looks like CDDA with probability 100%
------------------------------------------------------------
Processing file: [03. Machine Five.wav]
------------------------------------------------------------
This track looks like CDDA with probability 100%
------------------------------------------------------------
Processing file: [04. Flipping Out.wav]
------------------------------------------------------------
This track looks like CDDA with probability 100%
------------------------------------------------------------
Processing file: [05. Translucent Moon Jellies.wav]
------------------------------------------------------------
This track looks like CDDA with probability 100%
------------------------------------------------------------
Processing file: [06. Mandrakes & Narwals.wav]
------------------------------------------------------------
This track looks like CDDA with probability 100%
------------------------------------------------------------
Processing file: [07. Jed (Improv).wav]
------------------------------------------------------------
This track looks like CDDA with probability 100%
------------------------------------------------------------
Processing file: [08. Shorty & Jimmy.wav]
------------------------------------------------------------
This track looks like CDDA with probability 99%
------------------------------------------------------------
Processing file: [09. Silly Accurate Monkeys.wav]
------------------------------------------------------------
This track looks like CDDA with probability 100%
------------------------------------------------------------
Processing file: [10. Funeral March.wav]
------------------------------------------------------------
This track looks like CDDA with probability 100%
------------------------------------------------------------
Processing file: [11. Vermin In The Basement.wav]
------------------------------------------------------------
This track looks like CDDA with probability 100%
------------------------------------------------------------
Processing file: [12. Lillie March (Improv).wav]
------------------------------------------------------------
This track looks like CDDA with probability 99%
------------------------------------------------------------
Processing file: [13. Slender Loris Of Sri Lanka.wav]
------------------------------------------------------------
This track looks like CDDA with probability 100%
------------------------------------------------------------
Processing file: [14. Flamboyant Pygmy Seahorse.wav]
------------------------------------------------------------
This track looks like CDDA with probability 100%
------------------------------------------------------------
Processing file: [15. Theodore Hawkins.wav]
------------------------------------------------------------
This track looks like CDDA with probability 100%
------------------------------------------------------------
Final Conclusion:
------------------------------------------------------------
These tracks looks like CDDA with probability 100%
Доп. информация:
 
Album Info
Recorded at KillZone studio, December 10th and 11th 2007. Mixed & mastered by Wayne Peet, February 19th, 2008.
 
Состав
Alto Saxophone, Tenor Saxophone, Clarinet – Kim Richmond
Percussion – Brad Dutz
Trumpet, Flugelhorn, Cornet – John Fumo
Any questions -> support@pro-jazz.com. По всем вопросам пишите -> support@pro-jazz.com
08:18
179
Нет комментариев. Ваш будет первым!