Вы используете незарегистрированную версию компонента "Вкладки"!

Поиск

(Free Jazz, Avant-Garde Jazz) Michael Vlatkovich - Across 36 Continents - 2005, FLAC (tracks+.cue), lossless

Треклист:
Michael Vlatkovich / Across 36 Continents
Жанр: Free Jazz, Avant-Garde Jazz
Страна-производитель диска: US
Год издания: 2005
Издатель (лейбл): pfMENTUM
Номер по каталогу: CD030
Страна: US
Аудиокодек: FLAC (*.flac)
Тип рипа: tracks+.cue
Битрейт аудио: lossless
Продолжительность: 44:21
Источник (релизер): свой фирменный диск
Наличие сканов в содержимом раздачи: нет
Треклист:
1. 5 Why Zee 1 3:53
2. I Have These Tears 6:17
3. Asking How Tiny Screams Rust Thousands Of Times Beneath Enormous Rocks 7:07
4. 8 5:31
5. Be Careful 1:54
6. 9113 6:20
7. It's Too Much To See Things Any More Clearly Than One Must See Them 10:20
8. All Of You None Of Us Know 2:56
 
Лог создания рипа
Exact Audio Copy V1.0 beta 2 from 29. April 2011
EAC extraction logfile from 5. October 2012, 20:33
Michael Vlatkovich / Across 36 Continents
Used drive : TSSTcorpCDDVDW SH-222AB Adapter: 1 ID: 0
Read mode : Secure
Utilize accurate stream : Yes
Defeat audio cache : Yes
Make use of C2 pointers : No
Read offset correction : 6
Overread into Lead-In and Lead-Out : No
Fill up missing offset samples with silence : Yes
Delete leading and trailing silent blocks : No
Null samples used in CRC calculations : Yes
Used interface : Installed external ASPI interface
Gap handling : Appended to previous track
Used output format : User Defined Encoder
Selected bitrate : 896 kBit/s
Quality : High
Add ID3 tag : No
Command line compressor : C:\Program Files\Exact Audio Copy\FLAC\FLAC.EXE
Additional command line options : -6 -V -T "ARTIST=%artist%" -T "TITLE=%title%" -T "ALBUM=%albumtitle%" -T "DATE=%year%" -T "TRACKNUMBER=%tracknr%" -T "GENRE=%genre%" -T "COMMENT=%comment%" -T "BAND=%albuminterpret%" -T "COMPOSER=%composer%" %haslyrics%--ta
TOC of the extracted CD
Track | Start | Length | Start sector | End sector
---------------------------------------------------------
1 | 0:00.00 | 3:53.33 | 0 | 17507
2 | 3:53.33 | 6:17.16 | 17508 | 45798
3 | 10:10.49 | 7:07.52 | 45799 | 77875
4 | 17:18.26 | 5:31.61 | 77876 | 102761
5 | 22:50.12 | 1:54.41 | 102762 | 111352
6 | 24:44.53 | 6:20.45 | 111353 | 139897
7 | 31:05.23 | 10:20.05 | 139898 | 186402
8 | 41:25.28 | 2:56.09 | 186403 | 199611
Track 1
Filename D:\zzz\01 - 5 Why Zee 1.wav
Pre-gap length 0:00:02.00
Peak level 94.4 %
Extraction speed 4.5 X
Track quality 100.0 %
Test CRC 5A63B5BE
Copy CRC 5A63B5BE
Track not present in AccurateRip database
Copy OK
Track 2
Filename D:\zzz\02 - I Have These Tears.wav
Pre-gap length 0:00:02.03
Peak level 94.4 %
Extraction speed 5.4 X
Track quality 100.0 %
Test CRC 50E030F1
Copy CRC 50E030F1
Track not present in AccurateRip database
Copy OK
Track 3
Filename D:\zzz\03 - Asking How Tiny Screams Rust Thousands Of Times Beneath Enormous Rocks.wav
Pre-gap length 0:00:03.04
Peak level 94.8 %
Extraction speed 6.1 X
Track quality 100.0 %
Test CRC 3086DBAD
Copy CRC 3086DBAD
Track not present in AccurateRip database
Copy OK
Track 4
Filename D:\zzz\04 - 8.wav
Pre-gap length 0:00:03.04
Peak level 94.6 %
Extraction speed 6.5 X
Track quality 100.0 %
Test CRC D73B743A
Copy CRC D73B743A
Track not present in AccurateRip database
Copy OK
Track 5
Filename D:\zzz\05 - Be Careful.wav
Pre-gap length 0:00:04.05
Peak level 94.3 %
Extraction speed 4.6 X
Track quality 99.9 %
Test CRC CBD3CACE
Copy CRC CBD3CACE
Track not present in AccurateRip database
Copy OK
Track 6
Filename D:\zzz\06 - 9113.wav
Pre-gap length 0:00:02.03
Peak level 72.1 %
Extraction speed 7.2 X
Track quality 100.0 %
Test CRC 5BA12095
Copy CRC 5BA12095
Track not present in AccurateRip database
Copy OK
Track 7
Filename D:\zzz\07 - It's Too Much To See Things Any More Clearly Than One Must See Them.wav
Pre-gap length 0:00:02.03
Peak level 94.4 %
Extraction speed 8.1 X
Track quality 100.0 %
Test CRC 4E319B15
Copy CRC 4E319B15
Track not present in AccurateRip database
Copy OK
Track 8
Filename D:\zzz\08 - All Of You None Of Us Know.wav
Peak level 76.8 %
Extraction speed 7.5 X
Track quality 100.0 %
Test CRC A9D527FB
Copy CRC A9D527FB
Track not present in AccurateRip database
Copy OK
None of the tracks are present in the AccurateRip database
No errors occurred
End of status report
==== Log checksum B516156DC8D4A253850911A247D81058FEEA48D5E5F922C4D9D93C7A9B54F299 ====
 
Содержание индексной карты (.CUE)
REM GENRE Jazz
REM DATE 2005
REM DISCID 650A6508
REM COMMENT "ExactAudioCopy v1.0b2"
PERFORMER "Michael Vlatkovich"
TITLE "Across 36 Continents"
FILE "01 - 5 Why Zee 1.wav" WAVE
TRACK 01 AUDIO
TITLE "5 Why Zee 1"
PERFORMER "Michael Vlatkovich"
INDEX 01 00:00:00
TRACK 02 AUDIO
TITLE "I Have These Tears"
PERFORMER "Michael Vlatkovich"
INDEX 00 03:51:30
FILE "02 - I Have These Tears.wav" WAVE
INDEX 01 00:00:00
TRACK 03 AUDIO
TITLE "Asking How Tiny Screams Rust Thousands Of Times Beneath Enormous Rocks"
PERFORMER "Michael Vlatkovich"
INDEX 00 06:14:12
FILE "03 - Asking How Tiny Screams Rust Thousands Of Times Beneath Enormous Rocks.wav" WAVE
INDEX 01 00:00:00
TRACK 04 AUDIO
TITLE "8"
PERFORMER "Michael Vlatkovich"
INDEX 00 07:04:48
FILE "04 - 8.wav" WAVE
INDEX 01 00:00:00
TRACK 05 AUDIO
TITLE "Be Careful"
PERFORMER "Michael Vlatkovich"
INDEX 00 05:27:56
FILE "05 - Be Careful.wav" WAVE
INDEX 01 00:00:00
TRACK 06 AUDIO
TITLE "9113"
PERFORMER "Michael Vlatkovich"
INDEX 00 01:52:38
FILE "06 - 9113.wav" WAVE
INDEX 01 00:00:00
TRACK 07 AUDIO
TITLE "It's Too Much To See Things Any More Clearly Than One Must See Them"
PERFORMER "Michael Vlatkovich"
INDEX 00 06:18:42
FILE "07 - It's Too Much To See Things Any More Clearly Than One Must See Them.wav" WAVE
INDEX 01 00:00:00
FILE "08 - All Of You None Of Us Know.wav" WAVE
TRACK 08 AUDIO
TITLE "All Of You None Of Us Know"
PERFORMER "Michael Vlatkovich"
INDEX 01 00:00:00
 
Лог проверки качества
d:\>d:\aucdtect -d/-m0 d:\zzz\*.wav
auCDtect: CD records authenticity detector, version 0.8.2
Copyright (c) 2004 Oleg Berngardt. All rights reserved.
Copyright (c) 2004 Alexander Djourik. All rights reserved.
------------------------------------------------------------
Processing file: [01. 5 Why Zee 1.wav]
------------------------------------------------------------
This track looks like CDDA with probability 99%
------------------------------------------------------------
Processing file: [02. I Have These Tears.wav]
------------------------------------------------------------
This track looks like CDDA with probability 100%
------------------------------------------------------------
Processing file: [03. Asking How Tiny Screams Rust Thousands Of Times Beneath Enormous Rocks.wav]
------------------------------------------------------------
This track looks like CDDA with probability 100%
------------------------------------------------------------
Processing file: [04. 8.wav]
------------------------------------------------------------
This track looks like CDDA with probability 100%
------------------------------------------------------------
Processing file: [05. Be Careful.wav]
------------------------------------------------------------
This track looks like CDDA with probability 100%
------------------------------------------------------------
Processing file: [06. 9113.wav]
------------------------------------------------------------
This track looks like CDDA with probability 99%
------------------------------------------------------------
Processing file: [07. It's Too Much To See Things Any More Clearly Than One Must See Them.wav]
------------------------------------------------------------
This track looks like CDDA with probability 100%
------------------------------------------------------------
Processing file: [08. All Of You None Of Us Know.wav]
------------------------------------------------------------
This track looks like CDDA with probability 100%
------------------------------------------------------------
Final Conclusion:
------------------------------------------------------------
These tracks looks like CDDA with probability 100%
Доп. информация:
 
Album Info
Music Composed by M. Vlatkovich, (c)2005 Julius Ivory Music, ASCAP • Poem Composed by Mark Weber
Recorded and Mastered by Sean Flora, Rocket Science Recording, Portland, Oregon
 
Состав
Michael Vlatkovich-Trombone/Percussion
Rob Blakeslee-Trumpet/Flugelhorn
Jeff Kaiser-Trumpet
Jill Torberson-French Horn
Michael Powers-Bass Trombone
Mark Weaver-Tuba
Rich Halley-Tenor Saxophone
Kurt Peterson-Alto Saxophone/Tenor Saxophone
Alan Lechusza-Bass Clarinet
Chris Lee-Drum Set/Vibes/Percussion
Mark Weber-Narrator, Track 5
Any questions -> support@pro-jazz.com. По всем вопросам пишите -> support@pro-jazz.com
04:11
166
Нет комментариев. Ваш будет первым!