Вы используете незарегистрированную версию компонента "Вкладки"!

Поиск

(Free jazz, Avant-Garde Jazz) Marion Brown - Geechee Recollections / Sweet Earth Flying - 2011, FLAC (tracks+.cue), lossless

(Free jazz, Avant-Garde Jazz) Marion Brown - Geechee Recollections / Sweet Earth Flying - 2011, FLAC (tracks+.cue), lossless
Треклист:
Marion Brown / Geechee Recollections / Sweet Earth Flying
Жанр: Free jazz, Avant-Garde Jazz
Страна-производитель диска: Germany
Год издания диска: 2011
Издатель (лейбл): Impulse!/Verve
Номер по каталогу: 06025 2780943
Страна: USA
Аудиокодек: FLAC (*.flac)
Тип рипа: tracks+.cue
Битрейт аудио: lossless
Продолжительность: 01:19:42
Источник (релизер): duppyB
Наличие сканов в содержимом раздачи: да
Треклист:
Geechee Recollections (1973)
1 Once Upon A Time (A Children's Tale) 6:27
2 Karintha 9:25
3 Buttermilk Bottom 4:43
4 Introduction 1:18
5 Tokalokaloka Part One 7:00
6 Tokalokaloka Part Two 8:39
7 Tokalokaloka Part Three 1:46
8 Ending 1:20
Sweet Earth Flying (1974)
9 Sweet Earth Flying, Part 1 3:40
10 Sweet Earth Flying, Part 2 5:58
11 Sweet Earth Flying, Part 4: Prince Willie 5:58
12 Sweet Earth Flying, Part 5 4:58
13 Eleven Light City, Part 1 7:18
14 Eleven Light City, Part 2 2:11
15 Eleven Light City, Part 3 5:53
16 Eleven Light City, Part 4 3:02
 
Лог создания рипа
Exact Audio Copy V1.0 beta 2 from 29. April 2011
EAC extraction logfile from 10. January 2012, 9:42
Marion Brown / Geechee Recollections & Sweet Earth Flying
Used drive : Optiarc DVD RW AD-7200S Adapter: 2 ID: 1
Read mode : Secure
Utilize accurate stream : Yes
Defeat audio cache : Yes
Make use of C2 pointers : No
Read offset correction : 48
Overread into Lead-In and Lead-Out : No
Fill up missing offset samples with silence : Yes
Delete leading and trailing silent blocks : No
Null samples used in CRC calculations : Yes
Used interface : Native Win32 interface for Win NT & 2000
Gap handling : Appended to previous track
Used output format : User Defined Encoder
Selected bitrate : 128 kBit/s
Quality : High
Add ID3 tag : No
Command line compressor : C:\Program Files\Exact Audio Copy\Flac\flac.exe
Additional command line options : -V -8 -T "Genre=%genre%" -T "Artist=%artist%" -T "Title=%title%" -T "Album=%albumtitle%" -T "Date=%year%" -T "Tracknumber=%tracknr%" -T "Comment=%comment%" %source%
TOC of the extracted CD
Track | Start | Length | Start sector | End sector
---------------------------------------------------------
1 | 0:00.00 | 6:27.28 | 0 | 29052
2 | 6:27.28 | 9:25.23 | 29053 | 71450
3 | 15:52.51 | 4:44.05 | 71451 | 92755
4 | 20:36.56 | 1:18.12 | 92756 | 98617
5 | 21:54.68 | 6:59.55 | 98618 | 130097
6 | 28:54.48 | 8:39.32 | 130098 | 169054
7 | 37:34.05 | 1:45.43 | 169055 | 176972
8 | 39:19.48 | 1:22.34 | 176973 | 183156
9 | 40:42.07 | 3:40.29 | 183157 | 199685
10 | 44:22.36 | 5:58.10 | 199686 | 226545
11 | 50:20.46 | 5:57.68 | 226546 | 253388
12 | 56:18.39 | 4:58.34 | 253389 | 275772
13 | 61:16.73 | 7:17.41 | 275773 | 308588
14 | 68:34.39 | 2:10.72 | 308589 | 318410
15 | 70:45.36 | 5:52.48 | 318411 | 344858
16 | 76:38.09 | 3:02.28 | 344859 | 358536
Track 1
Filename E:\Marion Brown - Geechee Recollections & Sweet Earth Flying (2011)\01. Once Upon A Time (A Children's Tale).wav
Pre-gap length 0:00:02.00
Peak level 97.1 %
Extraction speed 2.8 X
Track quality 100.0 %
Test CRC 91AA2251
Copy CRC 91AA2251
Track not present in AccurateRip database
Copy OK
Track 2
Filename E:\Marion Brown - Geechee Recollections & Sweet Earth Flying (2011)\02. Karintha.wav
Peak level 98.8 %
Extraction speed 3.3 X
Track quality 100.0 %
Test CRC 11B9499D
Copy CRC 11B9499D
Track not present in AccurateRip database
Copy OK
Track 3
Filename E:\Marion Brown - Geechee Recollections & Sweet Earth Flying (2011)\03. Buttermilk Bottom.wav
Peak level 85.3 %
Extraction speed 3.5 X
Track quality 100.0 %
Test CRC B51F0CEE
Copy CRC B51F0CEE
Track not present in AccurateRip database
Copy OK
Track 4
Filename E:\Marion Brown - Geechee Recollections & Sweet Earth Flying (2011)\04. Introduction.wav
Pre-gap length 0:00:01.39
Peak level 84.6 %
Extraction speed 2.8 X
Track quality 100.0 %
Test CRC AE24F075
Copy CRC AE24F075
Track not present in AccurateRip database
Copy OK
Track 5
Filename E:\Marion Brown - Geechee Recollections & Sweet Earth Flying (2011)\05. Tokalokaloka, Part One.wav
Peak level 87.8 %
Extraction speed 4.0 X
Track quality 100.0 %
Test CRC EFC1458C
Copy CRC EFC1458C
Track not present in AccurateRip database
Copy OK
Track 6
Filename E:\Marion Brown - Geechee Recollections & Sweet Earth Flying (2011)\06. Tokalokaloka, Part Two.wav
Peak level 85.1 %
Extraction speed 4.4 X
Track quality 100.0 %
Test CRC A6A03CE4
Copy CRC A6A03CE4
Track not present in AccurateRip database
Copy OK
Track 7
Filename E:\Marion Brown - Geechee Recollections & Sweet Earth Flying (2011)\07. Tokalokaloka, Part Three.wav
Peak level 57.0 %
Extraction speed 2.9 X
Track quality 99.8 %
Test CRC EFB69CF2
Copy CRC EFB69CF2
Track not present in AccurateRip database
Copy OK
Track 8
Filename E:\Marion Brown - Geechee Recollections & Sweet Earth Flying (2011)\08. Ending.wav
Peak level 75.9 %
Extraction speed 3.4 X
Track quality 100.0 %
Test CRC 88214B28
Copy CRC 88214B28
Track not present in AccurateRip database
Copy OK
Track 9
Filename E:\Marion Brown - Geechee Recollections & Sweet Earth Flying (2011)\09. Sweet Earth Flying, Part 1.wav
Pre-gap length 0:00:02.64
Peak level 79.4 %
Extraction speed 4.3 X
Track quality 100.0 %
Test CRC 44A0FFCD
Copy CRC 44A0FFCD
Track not present in AccurateRip database
Copy OK
Track 10
Filename E:\Marion Brown - Geechee Recollections & Sweet Earth Flying (2011)\10. Sweet Earth Flying, Part 2.wav
Peak level 98.8 %
Extraction speed 4.8 X
Track quality 100.0 %
Test CRC 71A99C55
Copy CRC 71A99C55
Track not present in AccurateRip database
Copy OK
Track 11
Filename E:\Marion Brown - Geechee Recollections & Sweet Earth Flying (2011)\11. Sweet Earth Flying, Part 4- Prince Willie.wav
Peak level 94.8 %
Extraction speed 4.6 X
Track quality 99.9 %
Test CRC 57ADD153
Copy CRC 57ADD153
Track not present in AccurateRip database
Copy OK
Track 12
Filename E:\Marion Brown - Geechee Recollections & Sweet Earth Flying (2011)\12. Sweet Earth Flying, Part 5.wav
Peak level 92.7 %
Extraction speed 4.6 X
Track quality 99.9 %
Test CRC 7088197F
Copy CRC 7088197F
Track not present in AccurateRip database
Copy OK
Track 13
Filename E:\Marion Brown - Geechee Recollections & Sweet Earth Flying (2011)\13. Eleven Light City, Part 1.wav
Peak level 89.7 %
Extraction speed 5.1 X
Track quality 99.9 %
Test CRC D3D58C60
Copy CRC D3D58C60
Track not present in AccurateRip database
Copy OK
Track 14
Filename E:\Marion Brown - Geechee Recollections & Sweet Earth Flying (2011)\14. Eleven Light City, Part 2.wav
Peak level 95.1 %
Extraction speed 4.8 X
Track quality 100.0 %
Test CRC 1714E02F
Copy CRC 1714E02F
Track not present in AccurateRip database
Copy OK
Track 15
Filename E:\Marion Brown - Geechee Recollections & Sweet Earth Flying (2011)\15. Eleven Light City, Part 3.wav
Peak level 98.8 %
Extraction speed 5.7 X
Track quality 100.0 %
Test CRC F6A83401
Copy CRC F6A83401
Track not present in AccurateRip database
Copy OK
Track 16
Filename E:\Marion Brown - Geechee Recollections & Sweet Earth Flying (2011)\16. Eleven Light City, Part 4.wav
Peak level 89.6 %
Extraction speed 5.3 X
Track quality 100.0 %
Test CRC 0ED357B2
Copy CRC 0ED357B2
Track not present in AccurateRip database
Copy OK
None of the tracks are present in the AccurateRip database
No errors occurred
End of status report
==== Log checksum 749C24017BF5C556EB11F7964B682762129C2FAA8E489BB9839BDD85859CE5A3 ====
 
Содержание индексной карты (.CUE)
REM GENRE Jazz
REM DATE 2011
REM DISCID E112AC10
REM COMMENT "ExactAudioCopy v1.0b2"
CATALOG 0602527809434
PERFORMER "Marion Brown"
TITLE "Geechee Recollections & Sweet Earth Flying"
FILE "01. Once Upon A Time (A Children's Tale).wav" WAVE
TRACK 01 AUDIO
TITLE "Once Upon A Time (A Children's Tale)"
PERFORMER "Marion Brown"
ISRC USUM71113942
INDEX 01 00:00:00
FILE "02. Karintha.wav" WAVE
TRACK 02 AUDIO
TITLE "Karintha"
PERFORMER "Marion Brown"
ISRC USUM71113943
INDEX 01 00:00:00
FILE "03. Buttermilk Bottom.wav" WAVE
TRACK 03 AUDIO
TITLE "Buttermilk Bottom"
PERFORMER "Marion Brown"
ISRC USUM71113944
INDEX 01 00:00:00
TRACK 04 AUDIO
TITLE "Introduction"
PERFORMER "Marion Brown"
ISRC USUM71113945
INDEX 00 04:42:41
FILE "04. Introduction.wav" WAVE
INDEX 01 00:00:00
FILE "05. Tokalokaloka, Part One.wav" WAVE
TRACK 05 AUDIO
TITLE "Tokalokaloka, Part One"
PERFORMER "Marion Brown"
ISRC USUM71113946
INDEX 01 00:00:00
FILE "06. Tokalokaloka, Part Two.wav" WAVE
TRACK 06 AUDIO
TITLE "Tokalokaloka, Part Two"
PERFORMER "Marion Brown"
ISRC USUM71113947
INDEX 01 00:00:00
FILE "07. Tokalokaloka, Part Three.wav" WAVE
TRACK 07 AUDIO
TITLE "Tokalokaloka, Part Three"
PERFORMER "Marion Brown"
ISRC USUM71113948
INDEX 01 00:00:00
FILE "08. Ending.wav" WAVE
TRACK 08 AUDIO
TITLE "Ending"
PERFORMER "Marion Brown"
ISRC USUM71113949
INDEX 01 00:00:00
TRACK 09 AUDIO
TITLE "Sweet Earth Flying, Part 1"
PERFORMER "Marion Brown"
ISRC USUM71113950
INDEX 00 01:19:45
FILE "09. Sweet Earth Flying, Part 1.wav" WAVE
INDEX 01 00:00:00
FILE "10. Sweet Earth Flying, Part 2.wav" WAVE
TRACK 10 AUDIO
TITLE "Sweet Earth Flying, Part 2"
PERFORMER "Marion Brown"
ISRC USUM71113951
INDEX 01 00:00:00
FILE "11. Sweet Earth Flying, Part 4- Prince Willie.wav" WAVE
TRACK 11 AUDIO
TITLE "Sweet Earth Flying, Part 4: Prince Willie"
PERFORMER "Marion Brown"
ISRC USUM71113952
INDEX 01 00:00:00
FILE "12. Sweet Earth Flying, Part 5.wav" WAVE
TRACK 12 AUDIO
TITLE "Sweet Earth Flying, Part 5"
PERFORMER "Marion Brown"
ISRC USUM71113953
INDEX 01 00:00:00
FILE "13. Eleven Light City, Part 1.wav" WAVE
TRACK 13 AUDIO
TITLE "Eleven Light City, Part 1"
PERFORMER "Marion Brown"
ISRC USUM71113954
INDEX 01 00:00:00
FILE "14. Eleven Light City, Part 2.wav" WAVE
TRACK 14 AUDIO
TITLE "Eleven Light City, Part 2"
PERFORMER "Marion Brown"
ISRC USUM71113955
INDEX 01 00:00:00
FILE "15. Eleven Light City, Part 3.wav" WAVE
TRACK 15 AUDIO
TITLE "Eleven Light City, Part 3"
PERFORMER "Marion Brown"
ISRC USUM71113957
INDEX 01 00:00:00
FILE "16. Eleven Light City, Part 4.wav" WAVE
TRACK 16 AUDIO
TITLE "Eleven Light City, Part 4"
PERFORMER "Marion Brown"
ISRC USUM71114109
INDEX 01 00:00:00
 
Об альбоме (сборнике)
Amazing work from Marion Brown – two albums we'd never be without! Geechee Recollections is quite possibly our favorite record ever from reedman Brown – and very different than both his seminal 60s recordings, and his European sides from later years! There's a really earthy feel to this record – one that really lives up to the title, and which comes from the use of lots of percussion, played by just about every group member, ala AACM – but handled in a style that's warmly spiritual, and very organic too – right in line with the best Impulse Records vibe of the time, yet completely its own thing too! Brown plays alto and soprano sax, and is working with players who include Leo Smith on trumpet, William Malone on mbira and autoharp, James Jefferson on bass, and Steve McCall, Jumma Santos, Bill Hasson, and A Kobena Adzenyah on percussion – in addition to percussion plays by other group members too. Two tracks are spare, beautiful solos – almost a Kalaparusha Maurice McIntyre vibe – and titles include "Buttermilk Bottom", "Once Upon A Time", "Tokalokaloka", and "Karintha". Sweet Earth Flying has an unusually introspective quality, and features Muhal Richard Abrams playing piano, Fender Rhodes, and Ring Modulated Hammon Organ, plus Paul Bley playing some of the same on a few tracks. The two-keyboard sound is very cool, and the record's dominated by it in a way that we find really surprising, given the fierceness of Brown's sax playing on earlier sessions. Each side of the album features a long suite – side one has "Sweet Earth Flying" and side two has "Eleven Light City" – and each have the tracks drifting in and out, with piano lines swirling about in a soulful spiritual way, as Brown's alto and soprano snake through the elegant arrangements. Really fantastic stuff – and a record that's unlike any we've heard from him! © 1996-2012, Dusty Groove America, Inc.
 
Состав
Alto Saxophone, Soprano Saxophone – Marion Brown
Bass – James Jefferson
Brass, Strings, Percussion – Wadada Leo Smith (tracks: 1 to 8)
Cello, Percussion – James Jefferson (tracks: 8 to 16)
Clarinet, Percussion – Marion Brown (tracks: 1 to 8)
Congas, Percussion – Jumma Santos (tracks: 1 to 8)
Drums, Percussion – Steve McCall
Mbira [Thumb Piano], Autoharp, Percussion – William Malone (tracks: 1 to 8)
Narrator, Percussion – Bill Hasson
Percussion, Idiophone – A. Kobena Adzenyah (tracks: 1 to 8)
Piano, Electric Piano, Organ – Muhal Richard Abrams (tracks: 8 to 16), Paul Bley (tracks: 8 to 16)
Producer – Ed Michel
Any questions -> support@pro-jazz.com. По всем вопросам пишите -> support@pro-jazz.com
20:55
216
Нет комментариев. Ваш будет первым!