Вы используете незарегистрированную версию компонента "Вкладки"!

Поиск

(Free Jazz, Avant-Garde Jazz) Leo Smith and New Dalta Ahkri - Go In Numbers - 1982, APE (image+.cue), lossless

(Free Jazz, Avant-Garde Jazz) Leo Smith and New Dalta Ahkri - Go In Numbers - 1982, APE (image+.cue), lossless
Треклист:
Leo Smith and New Dalta Ahkri / Go In Numbers
Жанр: Free Jazz, Avant-Garde Jazz
Страна-производитель диска: Italy
Год издания диска: 1982
Издатель (лейбл): Black Saint
Номер по каталогу: 120053
Аудиокодек: APE (*.ape)
Тип рипа: image+.cue
Битрейт аудио: lossless
Продолжительность: 45:13
Источник (релизер): Собственный рип с оригинального диска
Наличие сканов в содержимом раздачи: да (под спойлером)
Треклист:
1. The World Soul (4:09)
2. Go In Numbers (17:19)
3. Illumination - The Nguzo Saba Changes (16:28)
4. Changes (7:17)
 
Сканы диска



 
Лог создания рипа
Exact Audio Copy V0.99 prebeta 5 from 4. May 2009
EAC extraction logfile from 7. September 2011, 23:09
Leo Smith & New Dalta Ahkri / Go In Numbers
Used drive : Optiarc DVD RW AD-5200S Adapter: 0 ID: 1
Read mode : Secure
Utilize accurate stream : Yes
Defeat audio cache : Yes
Make use of C2 pointers : No
Read offset correction : 48
Overread into Lead-In and Lead-Out : No
Fill up missing offset samples with silence : Yes
Delete leading and trailing silent blocks : No
Null samples used in CRC calculations : Yes
Used interface : Native Win32 interface for Win NT & 2000
Used output format : Internal WAV Routines
Sample format : 44.100 Hz; 16 Bit; Stereo
TOC of the extracted CD
Track | Start | Length | Start sector | End sector
---------------------------------------------------------
1 | 0:00.32 | 4:09.43 | 32 | 18749
2 | 4:10.00 | 17:19.50 | 18750 | 96724
3 | 21:29.50 | 16:28.42 | 96725 | 170866
4 | 37:58.17 | 7:17.15 | 170867 | 203656
Range status and errors
Selected range
Filename H:\FOS\MY_MUSIC\Leo Smith and New Dalta Ahkri - Go In Numbers\Leo Smith & New Dalta Ahkri - Go In Numbers - 1982.wav
Peak level 70.7 %
Range quality 100.0 %
Test CRC 8BFB9289
Copy CRC 8BFB9289
Copy OK
No errors occurred
End of status report
 
Содержание индексной карты (.CUE)
REM GENRE Jazz
REM DATE 1982
REM DISCID 240A9B04
REM COMMENT "ExactAudioCopy v0.99pb5"
PERFORMER "Leo Smith & New Dalta Ahkri"
TITLE "Go In Numbers"
FILE "Leo Smith & New Dalta Ahkri - Go In Numbers - 1982.wav" WAVE
TRACK 01 AUDIO
TITLE "The World Soul"
PERFORMER "Leo Smith & New Dalta Ahkri"
INDEX 00 00:00:00
INDEX 01 00:00:32
TRACK 02 AUDIO
TITLE "Go In Numbers"
PERFORMER "Leo Smith & New Dalta Ahkri"
INDEX 01 04:10:00
TRACK 03 AUDIO
TITLE "Illumination: The Nguzo Saba"
PERFORMER "Leo Smith & New Dalta Ahkri"
INDEX 01 21:29:50
TRACK 04 AUDIO
TITLE "Changes"
PERFORMER "Leo Smith & New Dalta Ahkri"
INDEX 01 37:58:17
 
Состав
Leo Smith, trumpet, flute
Dwight Andrews, tenor and soprano saxophones, flute
Bobby Naughton, vibraphone
Wes Brown, bass, flute
По всем вопросам пишите личное сообщение пользователю M0p94ok.
16:37
150
Нет комментариев. Ваш будет первым!