Вы используете незарегистрированную версию компонента "Вкладки"!

Поиск

(Free Jazz, Avant-Garde Jazz) Joel Futterman - Benjamin Tomassetti: Coherence - 2005, FLAC (tracks+.cue), lossless

Треклист:
Joel Futterman - Benjamin Tomassetti: Coherence
Жанр: Free Jazz, Avant-Garde Jazz
Год выпуска диска: 2005
Производитель диска: USA
Label: JDF Music JDF 411
Аудио кодек: FLAC
Тип рипа: tracks+.cue + Artwork
Битрейт аудио: lossless
Продолжительность: 1:03:19
Происхождение рипа: собственный рип с оригинального диска.
Треклист:
01. Part One (15:31)
02. Part Two (2:18)
03. Part Three (2:44)
04. Part Four (12:10)
05. Part Five (6:58)
06. Part Six (18:17)
07. Part Seven (4:53)
Доп. информация:
Joel Futterman - piano and curved soprano saxophone
Benjamin Tomassetti - alto saxophone
Recorded June 2005
Audio Engineer: Benjamin Tomassetti
Direct to digital at 24bits/96KHz sampling rate.
 
EAC log
Exact Audio Copy V0.99 prebeta 5 from 4. May 2009
EAC extraction logfile from 9. August 2010, 0:44
Joel Futterman - Benjamin Tomassetti / Coherence
Used drive : HL-DT-STDVD-ROM GDR8162B Adapter: 1 ID: 1
Read mode : Secure
Utilize accurate stream : Yes
Defeat audio cache : Yes
Make use of C2 pointers : No
Read offset correction : 102
Overread into Lead-In and Lead-Out : Yes
Fill up missing offset samples with silence : Yes
Delete leading and trailing silent blocks : No
Null samples used in CRC calculations : Yes
Used interface : Installed external ASPI interface
Gap handling : Appended to previous track
Used output format : User Defined Encoder
Selected bitrate : 768 kBit/s
Quality : High
Add ID3 tag : No
Command line compressor : C:\Program Files\FLAC\flac.exe
Additional command line options : -V -8 -T "ARTIST=%a" -T "TITLE=%t" -T "ALBUM=%g" -T "TRACKNUMBER=%n" -T "GENRE=%m" %s
TOC of the extracted CD
Track | Start | Length | Start sector | End sector
---------------------------------------------------------
1 | 0:00.00 | 15:33.48 | 0 | 70022
2 | 15:33.48 | 2:20.68 | 70023 | 80590
3 | 17:54.41 | 2:46.32 | 80591 | 93072
4 | 20:40.73 | 12:12.39 | 93073 | 148011
5 | 32:53.37 | 7:00.06 | 148012 | 179517
6 | 39:53.43 | 18:19.16 | 179518 | 261958
7 | 58:12.59 | 4:53.17 | 261959 | 283950
Track 1
Filename C:\ru up\Futterman Coherence\01 - Part One.wav
Pre-gap length 0:00:02.00
Peak level 84.6 %
Track quality 100.0 %
Test CRC 4274B7CE
Copy CRC 4274B7CE
Track not present in AccurateRip database
Copy OK
Track 2
Filename C:\ru up\Futterman Coherence\02 - Part Two.wav
Peak level 73.9 %
Track quality 100.0 %
Test CRC D09BA165
Copy CRC D09BA165
Track not present in AccurateRip database
Copy OK
Track 3
Filename C:\ru up\Futterman Coherence\03 - Part Three.wav
Peak level 84.3 %
Track quality 100.0 %
Test CRC EA0F61DC
Copy CRC EA0F61DC
Track not present in AccurateRip database
Copy OK
Track 4
Filename C:\ru up\Futterman Coherence\04 - Part Four.wav
Peak level 86.1 %
Track quality 99.9 %
Test CRC 11F55D0B
Copy CRC 11F55D0B
Track not present in AccurateRip database
Copy OK
Track 5
Filename C:\ru up\Futterman Coherence\05 - Part Five.wav
Peak level 82.9 %
Track quality 100.0 %
Test CRC 47AFD86E
Copy CRC 47AFD86E
Track not present in AccurateRip database
Copy OK
Track 6
Filename C:\ru up\Futterman Coherence\06 - Part Six.wav
Peak level 88.7 %
Track quality 100.0 %
Test CRC EDE8DEFC
Copy CRC EDE8DEFC
Track not present in AccurateRip database
Copy OK
Track 7
Filename C:\ru up\Futterman Coherence\07 - Part Seven.wav
Peak level 93.8 %
Track quality 99.9 %
Test CRC 15277728
Copy CRC 15277728
Track not present in AccurateRip database
Copy OK
None of the tracks are present in the AccurateRip database
No errors occurred
End of status report
 
cue
REM GENRE "Free Jazz"
REM DATE 2005
REM DISCID 670ECA07
REM COMMENT "ExactAudioCopy v0.99pb5"
PERFORMER "Joel Futterman - Benjamin Tomassetti"
TITLE "Coherence"
FILE "01 - Part One.wav" WAVE
TRACK 01 AUDIO
TITLE "Part One"
PERFORMER "Joel Futterman - Benjamin Tomassetti"
INDEX 01 00:00:00
FILE "02 - Part Two.wav" WAVE
TRACK 02 AUDIO
TITLE "Part Two"
PERFORMER "Joel Futterman - Benjamin Tomassetti"
INDEX 01 00:00:00
FILE "03 - Part Three.wav" WAVE
TRACK 03 AUDIO
TITLE "Part Three"
PERFORMER "Joel Futterman - Benjamin Tomassetti"
INDEX 01 00:00:00
FILE "04 - Part Four.wav" WAVE
TRACK 04 AUDIO
TITLE "Part Four"
PERFORMER "Joel Futterman - Benjamin Tomassetti"
INDEX 01 00:00:00
FILE "05 - Part Five.wav" WAVE
TRACK 05 AUDIO
TITLE "Part Five"
PERFORMER "Joel Futterman - Benjamin Tomassetti"
INDEX 01 00:00:00
FILE "06 - Part Six.wav" WAVE
TRACK 06 AUDIO
TITLE "Part Six"
PERFORMER "Joel Futterman - Benjamin Tomassetti"
INDEX 01 00:00:00
FILE "07 - Part Seven.wav" WAVE
TRACK 07 AUDIO
TITLE "Part Seven"
PERFORMER "Joel Futterman - Benjamin Tomassetti"
INDEX 01 00:00:00
 
Technical Notes
The goal of the audio production is to be as pure as the spirit of the music.
There were no edits, overdubs, fixes, or second takes .
On track five, Joel simultaneously plays piano and soprano sax. The soprano sax's signal was picked-up by the piano microphones which creates an interesting foreground-background musical texture.
По всем вопросам пишите личное сообщение пользователю M0p94ok.
02:09
173
Нет комментариев. Ваш будет первым!