Вы используете незарегистрированную версию компонента "Вкладки"!

Поиск

(Free Jazz, Avant-Garde Jazz, Free Improvisation) Brad Dutz & Vinny Golia - Duets - 2009, FLAC (tracks+.cue), lossless

(Free Jazz, Avant-Garde Jazz, Free Improvisation) Brad Dutz & Vinny Golia - Duets - 2009, FLAC (tracks+.cue), lossless
Треклист:
Brad Dutz & Vinny Golia / Duets
Жанр: Free Jazz, Avant-Garde Jazz, Free Improvisation
Страна-производитель диска: US
Год издания: 2009
Издатель (лейбл): Brad Dutz self-released CD-R
Номер по каталогу: 8W022
Страна: US
Аудиокодек: FLAC (*.flac)
Тип рипа: tracks+.cue
Битрейт аудио: lossless
Продолжительность: 73:53
Источник (релизер): свой фирменный диск
Наличие сканов в содержимом раздачи: нет
Треклист:
1 Nine Eight In Hungary 4:30
2 Cap Wearer From Scotland 1:57
3 Tenors In Korea 5:13
4 Swimming Risk In China 6:42
5 Rumors Of Confirmation 3:07
6 Indigenous Coriander 1:38
7 Vamps And Interruptions 10:20
8 Sordidly Sustained 4:43
9 Sofia To The Black Sea 3:31
10 Quackery 5:54
11 Swing'in Sam Tribute 5:58
12 Save The Metal Scrap Organ 5:23
13 The Vocalist Failed To Appear 6:11
14 Something About Fish 8:09
 
Лог создания рипа
Exact Audio Copy V1.0 beta 3 from 29. August 2011
EAC extraction logfile from 24. January 2013, 19:41
Brad Dutz & Vinny Golia / Duets
Used drive : PIONEER DVD-RW DVR-115D Adapter: 0 ID: 0
Read mode : Secure
Utilize accurate stream : Yes
Defeat audio cache : Yes
Make use of C2 pointers : No
Read offset correction : 48
Overread into Lead-In and Lead-Out : No
Fill up missing offset samples with silence : Yes
Delete leading and trailing silent blocks : No
Null samples used in CRC calculations : Yes
Used interface : Installed external ASPI interface
Gap handling : Appended to previous track
Used output format : User Defined Encoder
Selected bitrate : 896 kBit/s
Quality : High
Add ID3 tag : No
Command line compressor : C:\Program Files\Exact Audio Copy\FLAC\FLAC.EXE
Additional command line options : -6 -V -T "ARTIST=%artist%" -T "TITLE=%title%" -T "ALBUM=%albumtitle%" -T "DATE=%year%" -T "TRACKNUMBER=%tracknr%" -T "GENRE=%genre%" -T "COMMENT=%comment%" -T "BAND=%albuminterpret%" -T "COMPOSER=%composer%" %haslyrics%--tag-from-file=LYRICS="%lyricsfile%"%haslyrics% -T "DISCNUMBER=%cdnumber%" -T "TOTALDISCS=%totalcds%" -T "TOTALTRACKS=%numtracks%" %hascover%--picture="%coverfile%"%hascover% %source% -o %dest%
TOC of the extracted CD
Track | Start | Length | Start sector | End sector
---------------------------------------------------------
1 | 0:00.00 | 4:32.65 | 0 | 20464
2 | 4:32.65 | 2:00.06 | 20465 | 29470
3 | 6:32.71 | 5:16.31 | 29471 | 53201
4 | 11:49.27 | 6:44.60 | 53202 | 83561
5 | 18:34.12 | 3:09.42 | 83562 | 97778
6 | 21:43.54 | 1:40.69 | 97779 | 105347
7 | 23:24.48 | 10:22.53 | 105348 | 152050
8 | 33:47.26 | 4:45.59 | 152051 | 173484
9 | 38:33.10 | 3:33.37 | 173485 | 189496
10 | 42:06.47 | 5:56.54 | 189497 | 216250
11 | 48:03.26 | 6:01.39 | 216251 | 243364
12 | 54:04.65 | 5:25.50 | 243365 | 267789
13 | 59:30.40 | 6:13.50 | 267790 | 295814
14 | 65:44.15 | 8:09.26 | 295815 | 332515
Track 1
Filename D:\zzz\01 - Nine Eight In Hungary.wav
Pre-gap length 0:00:02.00
Peak level 96.6 %
Extraction speed 4.2 X
Track quality 99.9 %
Test CRC 15084F57
Copy CRC 15084F57
Track not present in AccurateRip database
Copy OK
Track 2
Filename D:\zzz\02 - Cap Wearer From Scotland.wav
Peak level 96.6 %
Extraction speed 4.3 X
Track quality 100.0 %
Test CRC DF15679C
Copy CRC DF15679C
Track not present in AccurateRip database
Copy OK
Track 3
Filename D:\zzz\03 - Tenors In Korea.wav
Peak level 96.6 %
Extraction speed 4.9 X
Track quality 99.9 %
Test CRC F0F2A504
Copy CRC F0F2A504
Track not present in AccurateRip database
Copy OK
Track 4
Filename D:\zzz\04 - Swimming Risk In China.wav
Peak level 96.6 %
Extraction speed 6.1 X
Track quality 100.0 %
Test CRC BEF504FB
Copy CRC BEF504FB
Track not present in AccurateRip database
Copy OK
Track 5
Filename D:\zzz\05 - Rumors Of Confirmation.wav
Peak level 96.6 %
Extraction speed 5.1 X
Track quality 99.9 %
Test CRC 662493DA
Copy CRC 662493DA
Track not present in AccurateRip database
Copy OK
Track 6
Filename D:\zzz\06 - Indigenous Coriander.wav
Peak level 53.8 %
Extraction speed 4.2 X
Track quality 99.8 %
Test CRC 3F3B9DFD
Copy CRC 3F3B9DFD
Track not present in AccurateRip database
Copy OK
Track 7
Filename D:\zzz\07 - Vamps And Interruptions.wav
Peak level 96.6 %
Extraction speed 7.2 X
Track quality 100.0 %
Test CRC 621B6474
Copy CRC 621B6474
Track not present in AccurateRip database
Copy OK
Track 8
Filename D:\zzz\08 - Sordidly Sustained.wav
Peak level 96.6 %
Extraction speed 7.2 X
Track quality 100.0 %
Test CRC FE621994
Copy CRC FE621994
Track not present in AccurateRip database
Copy OK
Track 9
Filename D:\zzz\09 - Sofia To The Black Sea.wav
Peak level 96.6 %
Extraction speed 7.0 X
Track quality 100.0 %
Test CRC F83928BA
Copy CRC F83928BA
Track not present in AccurateRip database
Copy OK
Track 10
Filename D:\zzz\10 - Quackery.wav
Peak level 96.6 %
Extraction speed 7.8 X
Track quality 100.0 %
Test CRC F3A95378
Copy CRC F3A95378
Track not present in AccurateRip database
Copy OK
Track 11
Filename D:\zzz\11 - Swing'in Sam Tribute.wav
Peak level 96.6 %
Extraction speed 7.4 X
Track quality 99.9 %
Test CRC 200B0ADA
Copy CRC 200B0ADA
Track not present in AccurateRip database
Copy OK
Track 12
Filename D:\zzz\12 - Save The Metal Scrap Organ.wav
Peak level 96.6 %
Extraction speed 7.5 X
Track quality 99.9 %
Test CRC F68B8C7A
Copy CRC F68B8C7A
Track not present in AccurateRip database
Copy OK
Track 13
Filename D:\zzz\13 - The Vocalist Failed To Appear.wav
Peak level 96.6 %
Extraction speed 8.6 X
Track quality 100.0 %
Test CRC DC49562F
Copy CRC DC49562F
Track not present in AccurateRip database
Copy OK
Track 14
Filename D:\zzz\14 - Something About Fish.wav
Peak level 96.6 %
Extraction speed 8.6 X
Track quality 99.9 %
Test CRC 9217C0EE
Copy CRC 9217C0EE
Track not present in AccurateRip database
Copy OK
None of the tracks are present in the AccurateRip database
No errors occurred
End of status report
==== Log checksum EDBB5B2855FDABD5E2F09E453CA7406FA3FA24EBAFDC25E6EDFAE6338AD73D33 ====
 
Содержание индексной карты (.CUE)
REM GENRE Avantgarde
REM DATE 2009
REM DISCID BB11510E
REM COMMENT "ExactAudioCopy v1.0b3"
PERFORMER "Brad Dutz & Vinny Golia"
TITLE "Duets"
FILE "01 - Nine Eight In Hungary.wav" WAVE
TRACK 01 AUDIO
TITLE "Nine Eight In Hungary"
PERFORMER "Brad Dutz & Vinny Golia"
INDEX 01 00:00:00
FILE "02 - Cap Wearer From Scotland.wav" WAVE
TRACK 02 AUDIO
TITLE "Cap Wearer From Scotland"
PERFORMER "Brad Dutz & Vinny Golia"
INDEX 01 00:00:00
FILE "03 - Tenors In Korea.wav" WAVE
TRACK 03 AUDIO
TITLE "Tenors In Korea"
PERFORMER "Brad Dutz & Vinny Golia"
INDEX 01 00:00:00
FILE "04 - Swimming Risk In China.wav" WAVE
TRACK 04 AUDIO
TITLE "Swimming Risk In China"
PERFORMER "Brad Dutz & Vinny Golia"
INDEX 01 00:00:00
FILE "05 - Rumors Of Confirmation.wav" WAVE
TRACK 05 AUDIO
TITLE "Rumors Of Confirmation"
PERFORMER "Brad Dutz & Vinny Golia"
INDEX 01 00:00:00
FILE "06 - Indigenous Coriander.wav" WAVE
TRACK 06 AUDIO
TITLE "Indigenous Coriander"
PERFORMER "Brad Dutz & Vinny Golia"
INDEX 01 00:00:00
FILE "07 - Vamps And Interruptions.wav" WAVE
TRACK 07 AUDIO
TITLE "Vamps And Interruptions"
PERFORMER "Brad Dutz & Vinny Golia"
INDEX 01 00:00:00
FILE "08 - Sordidly Sustained.wav" WAVE
TRACK 08 AUDIO
TITLE "Sordidly Sustained"
PERFORMER "Brad Dutz & Vinny Golia"
INDEX 01 00:00:00
FILE "09 - Sofia To The Black Sea.wav" WAVE
TRACK 09 AUDIO
TITLE "Sofia To The Black Sea"
PERFORMER "Brad Dutz & Vinny Golia"
INDEX 01 00:00:00
FILE "10 - Quackery.wav" WAVE
TRACK 10 AUDIO
TITLE "Quackery"
PERFORMER "Brad Dutz & Vinny Golia"
INDEX 01 00:00:00
FILE "11 - Swing'in Sam Tribute.wav" WAVE
TRACK 11 AUDIO
TITLE "Swing'in Sam Tribute"
PERFORMER "Brad Dutz & Vinny Golia"
INDEX 01 00:00:00
FILE "12 - Save The Metal Scrap Organ.wav" WAVE
TRACK 12 AUDIO
TITLE "Save The Metal Scrap Organ"
PERFORMER "Brad Dutz & Vinny Golia"
INDEX 01 00:00:00
FILE "13 - The Vocalist Failed To Appear.wav" WAVE
TRACK 13 AUDIO
TITLE "The Vocalist Failed To Appear"
PERFORMER "Brad Dutz & Vinny Golia"
INDEX 01 00:00:00
FILE "14 - Something About Fish.wav" WAVE
TRACK 14 AUDIO
TITLE "Something About Fish"
PERFORMER "Brad Dutz & Vinny Golia"
INDEX 01 00:00:00
 
Лог проверки качества
d:\>d:\aucdtect -d/-m0 d:\zzz\*.wav
auCDtect: CD records authenticity detector, version 0.8.2
Copyright (c) 2004 Oleg Berngardt. All rights reserved.
Copyright (c) 2004 Alexander Djourik. All rights reserved.
------------------------------------------------------------
Processing file: [01. Nine Eight In Hungary.wav]
------------------------------------------------------------
This track looks like CDDA with probability 100%
------------------------------------------------------------
Processing file: [02. Cap Wearer From Scotland.wav]
------------------------------------------------------------
This track looks like CDDA with probability 99%
------------------------------------------------------------
Processing file: [03. Tenors In Korea.wav]
------------------------------------------------------------
This track looks like CDDA with probability 100%
------------------------------------------------------------
Processing file: [04. Swimming Risk In China.wav]
------------------------------------------------------------
This track looks like CDDA with probability 100%
------------------------------------------------------------
Processing file: [05. Rumors Of Confirmation.wav]
------------------------------------------------------------
This track looks like CDDA with probability 100%
------------------------------------------------------------
Processing file: [06. Indigenous Coriander.wav]
------------------------------------------------------------
This track looks like CDDA with probability 100%
------------------------------------------------------------
Processing file: [07. Vamps And Interruptions.wav]
------------------------------------------------------------
This track looks like CDDA with probability 100%
------------------------------------------------------------
Processing file: [08. Sordidly Sustained.wav]
------------------------------------------------------------
This track looks like CDDA with probability 100%
------------------------------------------------------------
Processing file: [09. Sofia To The Black Sea.wav]
------------------------------------------------------------
This track looks like CDDA with probability 99%
------------------------------------------------------------
Processing file: [10. Quackery.wav]
------------------------------------------------------------
This track looks like CDDA with probability 100%
------------------------------------------------------------
Processing file: [11. Swing'in Sam Tribute.wav]
------------------------------------------------------------
This track looks like CDDA with probability 100%
------------------------------------------------------------
Processing file: [12. Save The Metal Scrap Organ.wav]
------------------------------------------------------------
This track looks like CDDA with probability 100%
------------------------------------------------------------
Processing file: [13. The Vocalist Failed To Appear.wav]
------------------------------------------------------------
This track looks like CDDA with probability 100%
------------------------------------------------------------
Processing file: [14. Something About Fish.wav]
------------------------------------------------------------
This track looks like CDDA with probability 100%
------------------------------------------------------------
Final Conclusion:
------------------------------------------------------------
These tracks looks like CDDA with probability 100%
Доп. информация:
 
Album Info
Recorded May 27th, 28th 2009 at Killzone Studio
 
Состав
Tenor Saxophone, Bass Saxophone, Saxello, Clarinet [Contrabass], Clarinet [Alto], Ney [Turkish], Kaval [Turkish], Tárogató, Flute, Flute [Alto], Flute [Bass], Sheng [Chinese], Bagpipes [Mediterranean], Bagpipes [Djuragaida], Shakuhachi – Vinny Golia
Vibraphone, Marimba [Glass], Steel Drums, Bongos, Timbales, Snare [Jingle], Tar (drum), Percussion [Hadjira], Percussion [Canbourine], Waterphone, Crotales [Bowed], Gong [Tuned Gongs], Cajón, Berimbau, Percussion [Korean Squeeze Drum], Percussion [Bones], Cymbal [Paiste Cymbals], Shaker [Shakers], Percussion [Spinners], Whistle [Whistles], Pandeiro, Tambourine [Riq], Concertina, Performer [Music Boxes], Percussion [Rawclife Clay Bowls], Percussion [Tarine] – Brad Dutz
Any questions -> support@pro-jazz.com. По всем вопросам пишите -> support@pro-jazz.com
08:21
133
Нет комментариев. Ваш будет первым!