Вы используете незарегистрированную версию компонента "Вкладки"!

Поиск

(Free Jazz, Avant-Garde Jazz, FMR) Mark O'Leary (w/ John Herndon & Stale Storlokken) - Ellipses - 2008, FLAC (tracks+.cue), lossless

(Free Jazz, Avant-Garde Jazz, FMR) Mark O'Leary (w/ John Herndon & Stale Storlokken) - Ellipses - 2008, FLAC (tracks+.cue), lossless
Треклист:
Mark O'Leary (w/ John Herndon & Stale Storlokken) / Ellipses
Жанр: Free Jazz, Avant-Garde Jazz, FMR
Страна-производитель диска: UK
Год издания: 2008
Издатель (лейбл): FMR Records
Номер по каталогу: FMRCD254-0208
Страна: Ireland
Аудиокодек: FLAC (*.flac)
Тип рипа: tracks+.cue
Битрейт аудио: lossless
Продолжительность: 60:12
Источник (релизер): свой фирменный диск
Наличие сканов в содержимом раздачи:
Треклист:
1 Ellipses 18:35
2 Maskerade 16:58
3 Theme From Jack Johnson 24:39
 
Лог создания рипа
Exact Audio Copy V1.0 beta 3 from 29. August 2011
EAC extraction logfile from 21. June 2013, 0:11
Mark O'Leary / Ellipses
Used drive : PIONEER DVD-RW DVR-115D Adapter: 0 ID: 0
Read mode : Secure
Utilize accurate stream : Yes
Defeat audio cache : Yes
Make use of C2 pointers : No
Read offset correction : 48
Overread into Lead-In and Lead-Out : No
Fill up missing offset samples with silence : Yes
Delete leading and trailing silent blocks : No
Null samples used in CRC calculations : Yes
Used interface : Installed external ASPI interface
Gap handling : Appended to previous track
Used output format : User Defined Encoder
Selected bitrate : 896 kBit/s
Quality : High
Add ID3 tag : No
Command line compressor : C:\Program Files\Exact Audio Copy\FLAC\FLAC.EXE
Additional command line options : -6 -V -T "ARTIST=%artist%" -T "TITLE=%title%" -T "ALBUM=%albumtitle%" -T "DATE=%year%" -T "TRACKNUMBER=%tracknr%" -T "GENRE=%genre%" -T "COMMENT=%comment%" -T "BAND=%albuminterpret%" -T "COMPOSER=%composer%" %haslyrics%--tag-from-file=LYRICS="%lyricsfile%"%haslyrics% -T "DISCNUMBER=%cdnumber%" -T "TOTALDISCS=%totalcds%" -T "TOTALTRACKS=%numtracks%" %hascover%--picture="%coverfile%"%hascover% %source% -o %dest%
TOC of the extracted CD
Track | Start | Length | Start sector | End sector
---------------------------------------------------------
1 | 0:00.00 | 18:34.51 | 0 | 83600
2 | 18:34.51 | 16:57.74 | 83601 | 159949
3 | 35:32.50 | 24:39.30 | 159950 | 270904
Track 1
Filename D:\zzz\01 - Ellipses.wav
Pre-gap length 0:00:02.00
Peak level 93.7 %
Extraction speed 5.4 X
Track quality 99.9 %
Test CRC 1525A475
Copy CRC 1525A475
Track not present in AccurateRip database
Copy OK
Track 2
Filename D:\zzz\02 - Maskerade.wav
Pre-gap length 0:00:01.74
Peak level 99.9 %
Extraction speed 7.2 X
Track quality 100.0 %
Test CRC 8FB333E6
Copy CRC 8FB333E6
Track not present in AccurateRip database
Copy OK
Track 3
Filename D:\zzz\03 - Theme From Jack Johnson.wav
Pre-gap length 0:00:01.74
Peak level 99.9 %
Extraction speed 6.3 X
Track quality 99.8 %
Test CRC 9DD8B94B
Copy CRC 9DD8B94B
Track not present in AccurateRip database
Copy OK
None of the tracks are present in the AccurateRip database
No errors occurred
End of status report
==== Log checksum 2EE68227247D7C59790DD40D173F571D66BDB432FF75C4BFF998DF10C235C66F ====
 
Содержание индексной карты (.CUE)
REM GENRE "Avant-Garde Jazz"
REM DATE 2008
REM DISCID 150E1C03
REM COMMENT "ExactAudioCopy v1.0b3"
PERFORMER "Mark O'Leary"
TITLE "Ellipses"
FILE "01 - Ellipses.wav" WAVE
TRACK 01 AUDIO
TITLE "Ellipses"
PERFORMER "Mark O'Leary"
INDEX 01 00:00:00
TRACK 02 AUDIO
TITLE "Maskerade"
PERFORMER "Mark O'Leary"
INDEX 00 18:32:52
FILE "02 - Maskerade.wav" WAVE
INDEX 01 00:00:00
TRACK 03 AUDIO
TITLE "Theme From Jack Johnson"
PERFORMER "Mark O'Leary"
INDEX 00 16:56:00
FILE "03 - Theme From Jack Johnson.wav" WAVE
INDEX 01 00:00:00
 
Лог проверки качества
d:\>d:\aucdtect -d/-m0 d:\zzz\*.wav
auCDtect: CD records authenticity detector, version 0.8.2
Copyright (c) 2004 Oleg Berngardt. All rights reserved.
Copyright (c) 2004 Alexander Djourik. All rights reserved.
------------------------------------------------------------
Processing file: [01. Ellipses.wav]
------------------------------------------------------------
This track looks like MPEG with probability 73%
------------------------------------------------------------
Processing file: [02. Maskerade.wav]
------------------------------------------------------------
This track looks like MPEG with probability 95%
------------------------------------------------------------
Processing file: [03. Theme From Jack Johnson.wav]
------------------------------------------------------------
This track looks like MPEG with probability 100%
------------------------------------------------------------
Final Conclusion:
------------------------------------------------------------
These tracks looks like MPEGs with probability 100%
Доп. информация:
 
AAJ Review
Irish guitar wunderkind Mark O'Leary has now set his sights on the jazz-fusion element, to complement his already expansive improvisational vernacular. This 2008 effort might open up a few more doors for an artist who possesses the goods to go anywhere he darn well pleases. For this project, O'Leary and his trio investigate black hole stars and prismatic galaxies, where time and space have no bearing on anything except the music at hand.
On the opening title track, the guitarist's darkly hued, moaning and groaning volume controlled passages set the framework for the band's ascension into the cosmos. Keyboardist Ståle Storløkken (Supersilent) renders trickling synth lines while drummer John Herndon (Tortoise and Exploding Star Orchestra) staggers the flow by punching out the asymmetrical pulse.
During various interludes and movements, the trio transmits a portrait of uncertainty within the vast reaches of interstellar space partly due to Storløkken's bursting and silvery synth notes to complement O'Leary's rip-roaring single note attack. Think of shooting stars across a midnight sky. But it's also about colorific noise-shaping. With a string of highs and lows, the trio either pulls out the proverbial stops via blistering interplay or descends into an eerie and mysterious chasm of sound and scope. It's an aggregation of electronic soundscaping, teeming with darting abstracts amid variable degrees of intensity.
On "Maskerade," Herndon lashes out with a succession of polyrhythmic grooves while Storløkken executes steely synths and sampler sounds. The closing "Theme from Jack Johnson" is simply a mind-bending workout, loosely based on Miles Davis' well-known composition of the same name. Perhaps it's an inspirational ode to Miles' electric fusion years, since this free-rock jaunt finds O'Leary literally punishing his axe via a succession of awe-inspiring riffs atop his bandmates' otherworldly treatments.
Ellipses is a powerhouse album and offers a zesty antidote to the fuzoid roads frequently traveled. O'Leary and associates zoom into a different musical dimension with linear momentum and no looking back.
 
Состав
Drums – John Herndon
Guitar, Electronics – Mark O'Leary
Synthesizer, Sampler – Ståle Storløkken
Any questions -> support@pro-jazz.com. По всем вопросам пишите -> support@pro-jazz.com
15:09
148
Нет комментариев. Ваш будет первым!