Поиск

(Free Jazz, Avant-Garde Jazz) Don Pullen Quintet (Fred Hopkins, Bobby Battle, Donald Harrison, Olu Dara) - The Sixth Sense - 1985, FLAC (tracks+.cue) lossless

Треклист:
Don Pullen Quintet (Fred Hopkins, Bobby Battle, Donald Harrison, Olu Dara) / The Sixth Sense
Жанр: Free Jazz, Avant-Garde Jazz
Страна-производитель диска: Italy
Год издания диска: 1985
Издатель (лейбл): Black Saint
Номер по каталогу: BSR 0088 CD
Аудио кодек: FLAC (*.flac)
Тип рипа: tracks+.cue
Битрейт аудио: lossless
Продолжительность: 40:32
Источник (релизер): what.cd (weareborg)
Наличие сканов в содержимом раздачи: нет
Треклист:
01 The Sixth Sense 9:46
02 In The Beginning 11:56
03 Tales From The Bright Side 8:53
04 Gratitude 7:36
05 All Is Well
 
Лог создания рипа
Exact Audio Copy V0.99 prebeta 4 from 23. January 2008
EAC extraction logfile from 25. April 2008, 8:33
Pullen, Don / The Sixth Sense
Used drive : HL-DT-STDVDRAM GSA-4167B Adapter: 2 ID: 0
Read mode : Secure
Utilize accurate stream : Yes
Defeat audio cache : No
Make use of C2 pointers : Yes
Read offset correction : 667
Overread into Lead-In and Lead-Out : No
Fill up missing offset samples with silence : Yes
Delete leading and trailing silent blocks : No
Null samples used in CRC calculations : Yes
Used interface : Installed external ASPI interface
Gap handling : Appended to previous track
Used output format : User Defined Encoder
Selected bitrate : 1024 kBit/s
Quality : High
Add ID3 tag : No
Command line compressor : C:\Program Files\FLAC\flac.exe
Additional command line options : -T "artist=%a" -T "title=%t" -T "album=%g" -T "date=%y" -T "tracknumber=%n" -T "genre=%m" -7 --verify %s
TOC of the extracted CD
Track | Start | Length | Start sector | End sector
---------------------------------------------------------
1 | 0:00.32 | 9:47.60 | 32 | 44116
2 | 9:48.17 | 12:04.30 | 44117 | 98446
3 | 21:52.47 | 9:00.10 | 98447 | 138956
4 | 30:52.57 | 7:40.40 | 138957 | 173496
5 | 38:33.22 | 1:59.35 | 173497 | 182456
Track 1
Filename E:\My Music\Artists\P\Pullen, Don\The Sixth Sense\test\01 - The Sixth Sense.wav
Pre-gap length 0:00:02.32
Peak level 100.0 %
Track quality 100.0 %
Test CRC E906419F
Copy CRC E906419F
Accurately ripped (confidence 2) [F82FB000]
Copy OK
Track 2
Filename E:\My Music\Artists\P\Pullen, Don\The Sixth Sense\test\02 - In The Beginning.wav
Pre-gap length 0:00:01.47
Peak level 100.0 %
Track quality 100.0 %
Test CRC 136F942F
Copy CRC 136F942F
Accurately ripped (confidence 2) [B77341FC]
Copy OK
Track 3
Filename E:\My Music\Artists\P\Pullen, Don\The Sixth Sense\test\03 - Tales From The Bright Side.wav
Pre-gap length 0:00:06.10
Peak level 100.0 %
Track quality 100.0 %
Test CRC 9D864BC5
Copy CRC 9D864BC5
Accurately ripped (confidence 2) [0CE5F8AD]
Copy OK
Track 4
Filename E:\My Music\Artists\P\Pullen, Don\The Sixth Sense\test\04 - Gratitude.wav
Pre-gap length 0:00:05.07
Peak level 77.8 %
Track quality 100.0 %
Test CRC C2FDF9E3
Copy CRC C2FDF9E3
Accurately ripped (confidence 2) [1EE85599]
Copy OK
Track 5
Filename E:\My Music\Artists\P\Pullen, Don\The Sixth Sense\test\05 - All Is Well.wav
Pre-gap length 0:00:02.17
Peak level 98.8 %
Track quality 100.0 %
Test CRC 5D937633
Copy CRC 5D937633
Accurately ripped (confidence 2) [A32F74D4]
Copy OK
All tracks accurately ripped
No errors occurred
End of status report
 
Содержание индексной карты (.CUE)
REM GENRE Jazz
REM DATE 1985
REM DISCID 36098005
REM COMMENT "ExactAudioCopy v0.99pb4"
PERFORMER "Pullen, Don"
TITLE "The Sixth Sense"
FILE "01 - The Sixth Sense.wav" WAVE
TRACK 01 AUDIO
TITLE "The Sixth Sense"
PERFORMER "Pullen, Don"
FLAGS PRE
PREGAP 00:00:32
INDEX 01 00:00:00
TRACK 02 AUDIO
TITLE "In The Beginning"
PERFORMER "Pullen, Don"
FLAGS PRE
INDEX 00 09:46:13
FILE "02 - In The Beginning.wav" WAVE
INDEX 01 00:00:00
TRACK 03 AUDIO
TITLE "Tales From The Bright Side"
PERFORMER "Pullen, Don"
FLAGS PRE
INDEX 00 11:58:20
FILE "03 - Tales From The Bright Side.wav" WAVE
INDEX 01 00:00:00
TRACK 04 AUDIO
TITLE "Gratitude"
PERFORMER "Pullen, Don"
FLAGS PRE
INDEX 00 08:55:03
FILE "04 - Gratitude.wav" WAVE
INDEX 01 00:00:00
TRACK 05 AUDIO
TITLE "All Is Well"
PERFORMER "Pullen, Don"
FLAGS PRE
INDEX 00 07:38:23
FILE "05 - All Is Well.wav" WAVE
INDEX 01 00:00:00
Доп. информация: Recorded June 12 and 13, 1985 at Classic Sound Studios, New York City. Mastered at PolyGram, Tribiano, Milan, Italy
 
Состав
Bass - Fred Hopkins
Drums - Bobby Battle
Piano - Don Pullen
Saxophone - Donald Harrison
Trumpet - Olu Dara
По всем вопросам пишите личное сообщение пользователю M0p94ok.
07:41
411
Нет комментариев. Ваш будет первым!