Вы используете незарегистрированную версию компонента "Вкладки"!

Поиск

(Free Jazz, Avant-Garde Jazz) Daniel Rosenboom - Bloodier, Mean Son - 2005, FLAC (tracks+.cue), lossless

(Free Jazz, Avant-Garde Jazz) Daniel Rosenboom - Bloodier, Mean Son - 2005, FLAC (tracks+.cue), lossless
Треклист:
Daniel Rosenboom / Bloodier, Mean Son
Жанр: Free Jazz, Avant-Garde Jazz
Страна-производитель диска: US
Год издания: 2005
Издатель (лейбл): 9 Winds
Номер по каталогу: NWCD 0238
Страна: US
Аудиокодек: FLAC (*.flac)
Тип рипа: tracks+.cue
Битрейт аудио: lossless
Продолжительность: 63:09
Источник (релизер): свой фирменный диск
Наличие сканов в содержимом раздачи: нет
Треклист:
1-3. Evolution
I. Dealing With Despots 4:53
II. Marching In Magical Madness 6:47
III. Conflict And Confluence 4:01
4. 39.1 Degrees Celsius 3:46
5-8. Zones Of Coherence
I. Warp Energy 4:06
II. Link Mass 4:44
III. Twist Fluidity: Twist Time 3:21
IV. Loop Space 2:11
9. Twenty-Seven 5:02
10. "Every Night" 0:54
11. Every Night (Harmony Series No. 12C) 11:10
12. Music For Unstable Circuits (+Drums+Trumpet) 8:14
13. Bloodier, Mean Son 3:29
 
Лог создания рипа
Exact Audio Copy V1.0 beta 3 from 29. August 2011
EAC extraction logfile from 19. January 2013, 17:40
Daniel Rosenboom / Bloodier, Mean Son
Used drive : PIONEER DVD-RW DVR-115D Adapter: 0 ID: 0
Read mode : Secure
Utilize accurate stream : Yes
Defeat audio cache : Yes
Make use of C2 pointers : No
Read offset correction : 48
Overread into Lead-In and Lead-Out : No
Fill up missing offset samples with silence : Yes
Delete leading and trailing silent blocks : No
Null samples used in CRC calculations : Yes
Used interface : Installed external ASPI interface
Gap handling : Appended to previous track
Used output format : User Defined Encoder
Selected bitrate : 896 kBit/s
Quality : High
Add ID3 tag : No
Command line compressor : C:\Program Files\Exact Audio Copy\FLAC\FLAC.EXE
Additional command line options : -6 -V -T "ARTIST=%artist%" -T "TITLE=%title%" -T "ALBUM=%albumtitle%" -T "DATE=%year%" -T "TRACKNUMBER=%tracknr%" -T "GENRE=%genre%" -T "COMMENT=%comment%" -T "BAND=%albuminterpret%" -T "COMPOSER=%composer%" %haslyrics%--tag-from-file=LYRICS="%lyricsfile%"%haslyrics% -T "DISCNUMBER=%cdnumber%" -T "TOTALDISCS=%totalcds%" -T "TOTALTRACKS=%numtracks%" %hascover%--picture="%coverfile%"%hascover% %source% -o %dest%
TOC of the extracted CD
Track | Start | Length | Start sector | End sector
---------------------------------------------------------
1 | 0:00.00 | 4:53.66 | 0 | 22040
2 | 4:53.66 | 6:48.56 | 22041 | 52696
3 | 11:42.47 | 4:06.00 | 52697 | 71146
4 | 15:48.47 | 3:46.61 | 71147 | 88157
5 | 19:35.33 | 4:05.06 | 88158 | 106538
6 | 23:40.39 | 4:43.08 | 106539 | 127771
7 | 28:23.47 | 3:20.52 | 127772 | 142823
8 | 31:44.24 | 2:11.53 | 142824 | 152701
9 | 33:56.02 | 5:02.68 | 152702 | 175419
10 | 38:58.70 | 0:56.17 | 175420 | 179636
11 | 39:55.12 | 11:33.05 | 179637 | 231616
12 | 51:28.17 | 8:12.00 | 231617 | 268516
13 | 59:40.17 | 3:29.24 | 268517 | 284215
Track 1
Filename D:\zzz\01 - Evolution - Dealing With Despots.wav
Pre-gap length 0:00:02.00
Peak level 96.6 %
Extraction speed 4.4 X
Track quality 100.0 %
Test CRC 020ABD90
Copy CRC 020ABD90
Track not present in AccurateRip database
Copy OK
Track 2
Filename D:\zzz\02 - Evolution - Marching In Magical Madness.wav
Pre-gap length 0:00:02.00
Peak level 96.6 %
Extraction speed 5.2 X
Track quality 100.0 %
Test CRC F74824FC
Copy CRC F74824FC
Track not present in AccurateRip database
Copy OK
Track 3
Filename D:\zzz\03 - Evolution - Conflict And Confluence.wav
Peak level 96.6 %
Extraction speed 4.9 X
Track quality 99.9 %
Test CRC 0551C8B1
Copy CRC 0551C8B1
Track not present in AccurateRip database
Copy OK
Track 4
Filename D:\zzz\04 - 39.1 Degrees Celsius.wav
Pre-gap length 0:00:04.00
Peak level 92.4 %
Extraction speed 5.7 X
Track quality 100.0 %
Test CRC F1B52B9D
Copy CRC F1B52B9D
Track not present in AccurateRip database
Copy OK
Track 5
Filename D:\zzz\05 - Zones Of Coherence - Warp Energy.wav
Pre-gap length 0:00:04.00
Peak level 96.5 %
Extraction speed 6.1 X
Track quality 100.0 %
Test CRC 2D965108
Copy CRC 2D965108
Track not present in AccurateRip database
Copy OK
Track 6
Filename D:\zzz\06 - Zones Of Coherence - Link Mass.wav
Pre-gap length 0:00:02.00
Peak level 74.8 %
Extraction speed 6.5 X
Track quality 100.0 %
Test CRC 6F1C9D1D
Copy CRC 6F1C9D1D
Track not present in AccurateRip database
Copy OK
Track 7
Filename D:\zzz\07 - Zones Of Coherence - Twist Fluidity- Twist Time.wav
Pre-gap length 0:00:02.00
Peak level 73.7 %
Extraction speed 6.4 X
Track quality 100.0 %
Test CRC F49B3E75
Copy CRC F49B3E75
Track not present in AccurateRip database
Copy OK
Track 8
Filename D:\zzz\08 - Zones Of Coherence - Loop Space.wav
Pre-gap length 0:00:02.00
Peak level 96.5 %
Extraction speed 6.1 X
Track quality 100.0 %
Test CRC 6C4AC7C4
Copy CRC 6C4AC7C4
Track not present in AccurateRip database
Copy OK
Track 9
Filename D:\zzz\09 - Twenty-Seven.wav
Pre-gap length 0:00:04.00
Peak level 96.6 %
Extraction speed 7.2 X
Track quality 100.0 %
Test CRC 2200CD40
Copy CRC 2200CD40
Track not present in AccurateRip database
Copy OK
Track 10
Filename D:\zzz\10 - ''Every Night''.wav
Pre-gap length 0:00:03.00
Peak level 17.8 %
Extraction speed 4.9 X
Track quality 100.0 %
Test CRC 5EE27887
Copy CRC 5EE27887
Track not present in AccurateRip database
Copy OK
Track 11
Filename D:\zzz\11 - Every Night (Harmony Series No. 12C).wav
Pre-gap length 0:00:02.00
Peak level 11.7 %
Extraction speed 8.2 X
Track quality 100.0 %
Test CRC E9EFAE45
Copy CRC E9EFAE45
Track not present in AccurateRip database
Copy OK
Track 12
Filename D:\zzz\12 - Music For Unstable Circuits (+Drums+Trumpet).wav
Pre-gap length 0:00:02.00
Peak level 96.5 %
Extraction speed 8.0 X
Track quality 99.9 %
Test CRC 0EF54135
Copy CRC 0EF54135
Track not present in AccurateRip database
Copy OK
Track 13
Filename D:\zzz\13 - Bloodier, Mean Son.wav
Pre-gap length 0:00:02.00
Peak level 96.6 %
Extraction speed 8.2 X
Track quality 100.0 %
Test CRC 1061FBA3
Copy CRC 1061FBA3
Track not present in AccurateRip database
Copy OK
None of the tracks are present in the AccurateRip database
No errors occurred
End of status report
==== Log checksum A12DF60A86F77521550A5908F6A0CE76001306005CAF7ED8EAB93E147F99AEC1 ====
 
Содержание индексной карты (.CUE)
REM GENRE Avantgarde
REM DATE 2005
REM DISCID AA0ECD0D
REM COMMENT "ExactAudioCopy v1.0b3"
PERFORMER "Daniel Rosenboom"
TITLE "Bloodier, Mean Son"
FILE "01 - Evolution - Dealing With Despots.wav" WAVE
TRACK 01 AUDIO
TITLE "Evolution - Dealing With Despots"
PERFORMER "Daniel Rosenboom"
INDEX 01 00:00:00
TRACK 02 AUDIO
TITLE "Evolution - Marching In Magical Madness"
PERFORMER "Daniel Rosenboom"
INDEX 00 04:51:66
FILE "02 - Evolution - Marching In Magical Madness.wav" WAVE
INDEX 01 00:00:00
FILE "03 - Evolution - Conflict And Confluence.wav" WAVE
TRACK 03 AUDIO
TITLE "Evolution - Conflict And Confluence"
PERFORMER "Daniel Rosenboom"
INDEX 01 00:00:00
TRACK 04 AUDIO
TITLE "39.1 Degrees Celsius"
PERFORMER "Daniel Rosenboom"
INDEX 00 04:02:00
FILE "04 - 39.1 Degrees Celsius.wav" WAVE
INDEX 01 00:00:00
TRACK 05 AUDIO
TITLE "Zones Of Coherence - Warp Energy"
PERFORMER "Daniel Rosenboom"
INDEX 00 03:42:61
FILE "05 - Zones Of Coherence - Warp Energy.wav" WAVE
INDEX 01 00:00:00
TRACK 06 AUDIO
TITLE "Zones Of Coherence - Link Mass"
PERFORMER "Daniel Rosenboom"
INDEX 00 04:03:06
FILE "06 - Zones Of Coherence - Link Mass.wav" WAVE
INDEX 01 00:00:00
TRACK 07 AUDIO
TITLE "Zones Of Coherence - Twist Fluidity: Twist Time"
PERFORMER "Daniel Rosenboom"
INDEX 00 04:41:08
FILE "07 - Zones Of Coherence - Twist Fluidity- Twist Time.wav" WAVE
INDEX 01 00:00:00
TRACK 08 AUDIO
TITLE "Zones Of Coherence - Loop Space"
PERFORMER "Daniel Rosenboom"
INDEX 00 03:18:52
FILE "08 - Zones Of Coherence - Loop Space.wav" WAVE
INDEX 01 00:00:00
TRACK 09 AUDIO
TITLE "Twenty-Seven"
PERFORMER "Daniel Rosenboom"
INDEX 00 02:07:53
FILE "09 - Twenty-Seven.wav" WAVE
INDEX 01 00:00:00
TRACK 10 AUDIO
TITLE "'Every Night'"
PERFORMER "Daniel Rosenboom"
INDEX 00 04:59:68
FILE "10 - ''Every Night''.wav" WAVE
INDEX 01 00:00:00
TRACK 11 AUDIO
TITLE "Every Night (Harmony Series No. 12C)"
PERFORMER "Daniel Rosenboom"
INDEX 00 00:54:17
FILE "11 - Every Night (Harmony Series No. 12C).wav" WAVE
INDEX 01 00:00:00
TRACK 12 AUDIO
TITLE "Music For Unstable Circuits (+Drums+Trumpet)"
PERFORMER "Daniel Rosenboom"
INDEX 00 11:31:05
FILE "12 - Music For Unstable Circuits (+Drums+Trumpet).wav" WAVE
INDEX 01 00:00:00
TRACK 13 AUDIO
TITLE "Bloodier, Mean Son"
PERFORMER "Daniel Rosenboom"
INDEX 00 08:10:00
FILE "13 - Bloodier, Mean Son.wav" WAVE
INDEX 01 00:00:00
 
Лог проверки качества
d:\>d:\aucdtect -d/-m0 d:\zzz\*.wav
auCDtect: CD records authenticity detector, version 0.8.2
Copyright (c) 2004 Oleg Berngardt. All rights reserved.
Copyright (c) 2004 Alexander Djourik. All rights reserved.
------------------------------------------------------------
Processing file: [01. Evolution - Dealing With Despots.wav]
------------------------------------------------------------
This track looks like CDDA with probability 99%
------------------------------------------------------------
Processing file: [02. Evolution - Marching In Magical Madness.wav]
------------------------------------------------------------
This track looks like CDDA with probability 100%
------------------------------------------------------------
Processing file: [03. Evolution - Conflict And Confluence.wav]
------------------------------------------------------------
This track looks like CDDA with probability 100%
------------------------------------------------------------
Processing file: [04. 39.1 Degrees Celsius.wav]
------------------------------------------------------------
This track looks like CDDA with probability 100%
------------------------------------------------------------
Processing file: [05. Zones Of Coherence - Warp Energy.wav]
------------------------------------------------------------
This track looks like CDDA with probability 100%
------------------------------------------------------------
Processing file: [06. Zones Of Coherence - Link Mass.wav]
------------------------------------------------------------
This track looks like CDDA with probability 100%
------------------------------------------------------------
Processing file: [07. Zones Of Coherence - Twist Fluidity- Twist Time.wav]
------------------------------------------------------------
This track looks like CDDA with probability 100%
------------------------------------------------------------
Processing file: [08. Zones Of Coherence - Loop Space.wav]
------------------------------------------------------------
This track looks like CDDA with probability 100%
------------------------------------------------------------
Processing file: [09. Twenty-Seven.wav]
------------------------------------------------------------
This track looks like CDDA with probability 100%
------------------------------------------------------------
Processing file: [10. 'Every Night'.wav]
------------------------------------------------------------
This track looks like CDDA with probability 100%
------------------------------------------------------------
Processing file: [11. Every Night (Harmony Series No. 12C).wav]
------------------------------------------------------------
This track looks like CDDA with probability 99%
------------------------------------------------------------
Processing file: [12. Music For Unstable Circuits (+Drums+Trumpet).wav]
------------------------------------------------------------
This track looks like CDDA with probability 100%
------------------------------------------------------------
Processing file: [13. Bloodier, Mean Son.wav]
------------------------------------------------------------
This track looks like CDDA with probability 100%
------------------------------------------------------------
Final Conclusion:
------------------------------------------------------------
These tracks looks like CDDA with probability 100%
Доп. информация:
 
Downtown Music Gallery Review
Recording engineered by Miriam Kolar at the Dizzy Gillespie Digital Recording Studio at California Institute of the Arts, 24700 McBean Parkway, Valencia, CA 91355
Produced & edited by Daniel & David Rosenboom
Bloodier, Mean Son (Nine Winds 238; USA) Featuring Daniel Rosenboom on trumpet & electronics, Derrick Spiva, Jr. om piano, Jake Vossler on electric guitar, Orest Balaban on electric bass, Michael Pisaro on sine-tones, Randy Gloss on tabla, Austin Wrinkle on drums & tabla and Jacqeline Humbert - voice. Compositions by Rosenboom, Nick Didkovsky, Vinny Golia Derrick Spiva, Robert Lax and Michael Pisaro. "Evolution" is a tight, progressive work for intricate trumpet, electric guitar and electric bass played at breakneck speed with midi-drum machine programmed to play these difficult parts. It is as if Nancarrow wrote for a prog/jazz/rock band. "Conflict and Confluence" prog, metal and fusion sounds into an unlikely and successful hybrid that is unlike anything I've heard before. As the el. guitar, bass and drums lock in play their lines together the trumpet plays precise counterpoint with/against them. Vinny Golia's "39.1 Degrees Celsius" is a solo trumpet work for mutated trumpet sounds, well played by Mr. Rosenboom. "Zones of Coherence" is again a solo trumpet work for layers on intricate and twisted trumpet sounds. As this piece evolves the layers of trumpet parts swim around one another with occasional buzzing echo-plexed flurries. Mr. Spiva's "Twenty-Seven" features samples sitar, complex tabla-fueled rhythms and spectacular trumpet soloing. Quite similar to John Mayer's later Indo-Jazz Fusion bands. Mr. Pisaro's "Every Night (Harmony Series 12C)" features distant drones floating in space, patience is required to observe the nuances of each drone as it sails by. "Music for Unstable Circuits" sounds like they are using an old fashioned computer with old science fiction-like sounds erupting in waves around the echoed trumpet lines. It is alien sounding and quite mesmerizing. The final piece is the title track and it was composed by Nick Didkovsky, leader of local prog sensation, Doctor Nerve. It does have that great, feisty rocking groove with some great trumpet and prog/metal guitar soloing. 'Bloodier, Mean Son" is an anagram for Daniel Rosenboom's name and is perhaps the most surprising (and great) discs we've heard from Nine Winds.
 
Состав
Daniel Rosenboom: trumpet & MIDI programming
Derrick Spiva, Jr.: piano & MIDI programming
Randy Gloss: tabla
Jacqueline Humbert: voice
Michael Pisaro: sine-tones
David Rosenboom: trumpet manipulation
Jake Vossler: electric guitar
Orest Balaban: electric bass
Austin Wrinkle: drumset & tabla
Any questions -> support@pro-jazz.com. По всем вопросам пишите -> support@pro-jazz.com
08:03
198
Нет комментариев. Ваш будет первым!