Вы используете незарегистрированную версию компонента "Вкладки"!

Поиск

(Free Jazz, Avant-Garde Jazz) Daniel Carter, Gregg Keplinger, Reuben Radding - Not Out for Anywhere {Sol Disk} - 2005, FLAC (image+.cue), lossless

(Free Jazz, Avant-Garde Jazz) Daniel Carter, Gregg Keplinger, Reuben Radding - Not Out for Anywhere {Sol Disk} - 2005, FLAC (image+.cue), lossless
Треклист:
Daniel Carter, Gregg Keplinger, Reuben Radding - Not Out for Anywhere
Жанр: Free Jazz, Avant-Garde Jazz
Год выпуска диска: 2005
Производитель диска: USA
Аудио кодек: FLAC
Тип рипа: image+.cue
Битрейт аудио: lossless
Продолжительность: 101:08
Трэклист:
Disc One:
01. Dance at the Beach - 7:40
02. Same Thing as That - 2:49
03. It's Just No, but Then - 3:26
04. Commercial Break - 5:40
05. Still I - 10:43
06. And One Guy Yells Piano - 12:48
07. The Long 7 - 10:25
08. It's the End - 6:51
Disc Two:
01. Psycho Scrim - 15:31
02. No Name Ocean - 25:14
Доп. информация:
Daniel Carter - alto & tenor saxophones, trumpet, clarinet, flute
Gregg Keplinger - drums
Reuben Radding - bass
with (on CD2):
Rick Mandyck - guitar
Gust Burns - piano
Wally Shoup - alto sax
Steve Griggs - tenor sax
Adam Diller - tenor sax
Dave Coleman - percussion
Matt Crane - percussion
Jack Gold - percussion
Troy Tiejen - percussion
2005, Sol Disk 5703
 
All About Jazz review
Daniel Carter's collaboration with bassman Reuben Radding has evolved from an impressionistic alto sax and contrabass duo on Luminescence (AUM Fidelity, 2003) to an alto/bass/drum trio with the addition of Gregg Keplinger on Language (Origin, 2002) and now to the trio supplemented by Carter's full range of instrumentation and other musicians forming what they call the Large Group.
Divided into a two-disc set, Not Out for Anywhere offers a lot of music. Disc one presents the trio in characteristic improvisations featuring Carter's own profound explorations, Keplinger's active drumming, and Radding's enthralling arco and pizzicato work. Radding plays his bass deep, in a seemingly continuous low rumble that offsets Keplinger's cymbals. Radding sounds like a bowling alley heard from outside and Keplinger's drums crash like ricocheting pins. Whether using his fingers or a bow, Radding is the fulcrum for the trio, slowing down and speeding up as warranted, often right in the middle of a song. On "Still I" he gets a marvelous woody sound as he bounces the strings lightly off the neck, perfectly complementing Carter's clarinet. In addition to clarinet, Carter chiefly plays alto, the middle-to-upper range of his tenor, flute on "Same Thing as That," and most impressively, introverted, disembodied trumpet on "Commercial Break" and "And One Guy Yells Piano."
Disc two adds guitar, piano, three saxophones, and four percussionists to the core to form a twelve piece Large Group on two extended jams. "Psycho Scrim" kicks off with a free jazz fanfare and gradually instruments peel away, leaving soloists and duos to carry the tune. Radding pulls out and puts away his bow and Carter swaps horns from his arsenal before the chorus of saxes returns to lead the ensemble to its conclusion. The longer "No Name Ocean" repeats the improvisational concept, but by the time Radding emerges to lay down a groove, the pianist comps and the bells get shaken, it sounds like a Pharoah Sanders project. Whatever the configuration, Carter, Keplinger, and Radding make formidable music.
~ Jeff Stockton, AllAboutJazz
 
Отчет Audiochecker
AUDIOCHECKER v2.0 beta (build 457) - by Dester - opdester@freemail.hu
~~~~~~~~~~~~~~~~~~~~~~~~~~~~~~~~~~
-=== DO NOT EDIT THIS FILE! ===-
Path: ...\Daniel Carter - Not Out of Anywhere
1 -=- Daniel Carter - Not Out of Anywhere CD1.flac -=- CDDA (100%)
2 -=- Daniel Carter - Not Out of Anywhere CD2.flac -=- CDDA (100%)
Summary 100,00% CDDA
256310756
 
Содержание индексной карты (.CUE)
 
CD1
REM GENRE Jazz
REM DATE 2005
PERFORMER "Daniel Carter, Gregg Keplinger, Reuben Redding"
TITLE "Not Out for Anywhere CD1"
FILE "Daniel Carter - Not Out for Anywhere CD1.flac" WAVE
TRACK 01 AUDIO
TITLE "Dance at the Beach"
INDEX 01 00:00:00
TRACK 02 AUDIO
TITLE "Same Thing as That"
INDEX 01 07:39:52
TRACK 03 AUDIO
TITLE "It's Just No, but Then"
INDEX 01 10:28:60
TRACK 04 AUDIO
TITLE "Commercial Break"
INDEX 01 13:54:62
TRACK 05 AUDIO
TITLE "Still I"
INDEX 01 19:35:04
TRACK 06 AUDIO
TITLE "And One Guy Yells Piano"
INDEX 01 30:18:27
TRACK 07 AUDIO
TITLE "The Long 7"
INDEX 01 43:06:45
TRACK 08 AUDIO
TITLE "It's the End"
INDEX 01 53:31:70
 
CD2
REM GENRE Jazz
REM DATE 2005
PERFORMER "Daniel Carter, Gregg Keplinger, Reuben Redding"
TITLE "Not Out for Anywhere CD2"
FILE "Daniel Carter - Not Out for Anywhere CD2.flac" WAVE
TRACK 01 AUDIO
TITLE "Psycho Scrim"
INDEX 01 00:00:00
TRACK 02 AUDIO
TITLE "No Name Ocean"
INDEX 01 15:30:42
Any questions -> support@pro-jazz.com. По всем вопросам пишите -> support@pro-jazz.com
12:35
140
Нет комментариев. Ваш будет первым!