Вы используете незарегистрированную версию компонента "Вкладки"!

Поиск

(Free Jazz, Avant-Garde Jazz, Contemporary Jazz) Trionacria - The Mystic Revelation - 1999, APE (image+.cue), lossless

Треклист:
Trionacria - The Mystic Revelation
Жанр: Free Jazz, Avant-Garde Jazz, Contemporary Jazz
Страна-производитель диска: Италия
Год издания диска: 1999
Издатель (лейбл): Curva Minore
Номер по каталогу: 001
Аудиокодек: APE (*.ape)
Тип рипа: image+.cue
Битрейт аудио: lossless
Продолжительность: 45:58
Источник (релизер): mmdd (hqshare)
Наличие сканов в содержимом раздачи: да
Треклист:
01. L'asino
02. Love Both
03. Vergin 110
04. Murnau
05. Tram n' Bus
06. Crotalus maior
07. V tre
08. Mission Possible
09. Tecniche dell'abigeato
10. Coniglicultura applicata
11. Said
12. Gustavus
13. T. Rex
14. La Necromante
 
Лог создания рипа
Exact Audio Copy V0.99 prebeta 4 from 23. January 2008
EAC extraction logfile from 2. July 2008, 11:33
Trionacria / The Mystic Revelation
Used drive : HL-DT-STDVD-RAM GSA-H54N Adapter: 1 ID: 0
Read mode : Secure
Utilize accurate stream : Yes
Defeat audio cache : Yes
Make use of C2 pointers : No
Read offset correction : 102
Overread into Lead-In and Lead-Out : No
Fill up missing offset samples with silence : Yes
Delete leading and trailing silent blocks : No
Null samples used in CRC calculations : Yes
Used interface : Native Win32 interface for Win NT & 2000
Used output format : Internal WAV Routines
Sample format : 44.100 Hz; 16 Bit; Stereo
TOC of the extracted CD
Track | Start | Length | Start sector | End sector
---------------------------------------------------------
1 | 0:00.00 | 0:59.45 | 0 | 4469
2 | 0:59.45 | 3:46.48 | 4470 | 21467
3 | 4:46.18 | 2:28.41 | 21468 | 32608
4 | 7:14.59 | 4:20.06 | 32609 | 52114
5 | 11:34.65 | 3:20.60 | 52115 | 67174
6 | 14:55.50 | 1:43.31 | 67175 | 74930
7 | 16:39.06 | 2:17.46 | 74931 | 85251
8 | 18:56.52 | 2:27.69 | 85252 | 96345
9 | 21:24.46 | 7:44.08 | 96346 | 131153
10 | 29:08.54 | 1:24.03 | 131154 | 137456
11 | 30:32.57 | 3:35.11 | 137457 | 153592
12 | 34:07.68 | 2:02.37 | 153593 | 162779
13 | 36:10.30 | 3:01.58 | 162780 | 176412
14 | 39:12.13 | 6:46.34 | 176413 | 206896
Range status and errors
Selected range
Filename C:\Trionacria - The Mystic Revelation.wav
Peak level 100.0 %
Range quality 100.0 %
Copy CRC E2467EBD
Copy OK
No errors occurred
AccurateRip summary
Track 1 not present in database
Track 2 not present in database
Track 3 not present in database
Track 4 not present in database
Track 5 not present in database
Track 6 not present in database
Track 7 not present in database
Track 8 not present in database
Track 9 not present in database
Track 10 not present in database
Track 11 not present in database
Track 12 not present in database
Track 13 not present in database
Track 14 not present in database
None of the tracks are present in the AccurateRip database
End of status report
 
Содержание индексной карты (.CUE)
REM GENRE Jazz
REM DISCID BB0AC60E
REM COMMENT "ExactAudioCopy v0.99pb4"
PERFORMER "Trionacria"
TITLE "The Mystic Revelation"
FILE "Trionacria - The Mystic Revelation.wav" WAVE
TRACK 01 AUDIO
TITLE "L'asino"
PERFORMER "Trionacria"
INDEX 01 00:00:00
TRACK 02 AUDIO
TITLE "Love Both"
PERFORMER "Trionacria"
INDEX 00 00:57:46
INDEX 01 00:59:45
TRACK 03 AUDIO
TITLE "Vergin 110"
PERFORMER "Trionacria"
INDEX 00 04:44:19
INDEX 01 04:46:18
TRACK 04 AUDIO
TITLE "Murnau"
PERFORMER "Trionacria"
INDEX 00 07:12:60
INDEX 01 07:14:59
TRACK 05 AUDIO
TITLE "Tram n' Bus"
PERFORMER "Trionacria"
INDEX 00 11:32:66
INDEX 01 11:34:65
TRACK 06 AUDIO
TITLE "Crotalus maior"
PERFORMER "Trionacria"
INDEX 00 14:53:50
INDEX 01 14:55:50
TRACK 07 AUDIO
TITLE "V tre"
PERFORMER "Trionacria"
INDEX 00 16:37:07
INDEX 01 16:39:06
TRACK 08 AUDIO
TITLE "Mission Possible"
PERFORMER "Trionacria"
INDEX 00 18:54:53
INDEX 01 18:56:52
TRACK 09 AUDIO
TITLE "Tecniche dell' abigeato"
PERFORMER "Trionacria"
INDEX 00 21:22:47
INDEX 01 21:24:46
TRACK 10 AUDIO
TITLE "Coniglicultura applicata"
PERFORMER "Trionacria"
INDEX 00 29:06:55
INDEX 01 29:08:54
TRACK 11 AUDIO
TITLE "Saмd"
PERFORMER "Trionacria"
INDEX 00 30:30:58
INDEX 01 30:32:57
TRACK 12 AUDIO
TITLE "Gustavus"
PERFORMER "Trionacria"
INDEX 00 34:05:69
INDEX 01 34:07:68
TRACK 13 AUDIO
TITLE "T.Rex"
PERFORMER "Trionacria"
INDEX 00 36:08:32
INDEX 01 36:10:30
TRACK 14 AUDIO
TITLE "La necromante"
PERFORMER "Trionacria"
INDEX 00 39:10:14
INDEX 01 39:12:13
 
Об исполнителе (группе)
The three members of this trio (active from 1999 to 2001) are all born and musically raised in Sicily and this record is a splendid example of that buoyant jazz scene. Saxophone player "Joraku" Gianni Gebbia is one of the most creative musicians in Italy and an outstanding solo player. He has played with many of european and american radical improvisers and, if you don't know him, I really suggest to look for his recordings. The trumpet is played by Rosario "Roy" Paci. This enormously talented musician is nowadays most know as a Manu Chao sideman and companion, but, listening to the music he creates here, one can only hope that he will again play in these non conventional contexts now or then. Drummer Francesco Cusa is an active element in many avant-garde projects and one of the founders of the Bassesfere's collective. Here, is the perfect engine that lights up the two blowers' pyrotechnic dialogues. As suggested since from the cover (designed by Gebbia) and the tracks' titles, Trionacria's creative music is full of understatement. The concept is of course not knew, but the empathy among the three is so high that the result is excellent.
Sicilian avant jazz core with strong Ornette's influences featuring trumpet wizard Roy Paci on trumpet, Gianni Gebbia on alto sax and francesco Cusa on drums.
This band has been playing in some of the most famous jazz festival as The Northsea jazz festival in Den Haag. Trionacria has also been featured as coupled band with Masada at the Festa della Musica in Milan.
Gianni Gebbia
Alto & sopranino saxophones - flute -various objects - Born in Palermo - Italy- May 1st - 1961
FREELANCE COLLABORATIONS Evan Parker,Fred Frith, Louis Sclavis, Gianluigi Trovesi, Lindsay Cooper, Lars Hollmer, Sakis Papadimitriou, André Jaume,Steve Buchanan,Yves Romain, Dominique Regef, Jean Pierre Drouet,Sergey Kuriokhin, Vladimir Tarasov, AnatolyVapirov, Petras Visnaiuskas, Fred Giuliani, Vitas Labutis, Tadashi Endo, Masaki Iwana, Motoharu Yoshizawa, Julie Stanzak, Keiki Miridokawa, Heiner Goebbels, David Moss, Claudio Lo Cascio, Otomo Yoshihide, Antonio Carallo, Raul Ruiz, Noel Akchoté, Benoit Delbeq, Paul Rogers, Thierry Madiot, Guillaume Orti, Christophe Marguet, Hubert Dupont, Ernst Reijsiger, Henri Kaiser, Mari Kimura, Damon Smith, Garth Powell, Phil Gelb, Tim Perkis, Gino Robair, Tom Nunn, William Hooker, Lee Ranaldo, Jim O? Rourke, Mimmo Cuticchio,Toti Garraffa, Floros Floridis, Lefteris Agouridakis, Antonello Salis, Pino Minafra, Salvatore Bonafede, Stefano D?Anna, Italian Instabile Orchestra, Peter Kowald, Gunther Sommer, Oliver Lake, Glen Velez, Enzo Rao, Tiziano Popoli, Miriam Palma, Lelio Giannetto, Vittorio Villa, Francesco Cusa, Massimo Simonini, Jim Meneses, Jean Marc Montera, Roy Paci, Francesco Cusa, Lukas Ligeti, Xavier Garcia, Nils Wogram, Michael Manring, Kazuhisa Uchihashi, Carl Stone, Shinichi Isohata, Ramon Lopez, Jon Raskin, Weasel Walter, Wu Ming 1, William Wynant. More info - giannigebbia.com/productssimple.html
Francesco Cusa was born in Catania in 1966 and started approaching jazz around 1986. He is mainly a self-tought musician, but he took part to various clinics and drums stages, among which "Siena Jazz", where he studied with Bruno biriaco, Roberto Gatto and Ettore Fioravanti. He also gradueted at DAMS ( Department of Arts, Music and Show at Bologna University) discussing a work about the 'extramusical elements in the jazz performance', and studied composition with M°Alfredo Impullitti.
In 1988 he moves to Bologna and starts collaborating with Fabrizio Puglisi, Stefano De Bonis, Guglielmo Pagnozzi, Domenico Caliri, Cristina Zavalloni, Alberto Capelli, Riccardo Pittau, Mirko Sabatini, Lullo Mosso, Edoardo Marraffa and other young talents standing out in the Bologna scene. They give birth together to the musical association BASSESFERE, an ensemble which aims at promoting improvised music and increasing the research in that field. More info - comune.bologna.it/iperbole/bassfere/english/musicist/ecusa.htm
Roy Paci Drummer and composer, Francesco Cusa was born in Catania in 1966 and started approaching jazz around 1986.
He is mainly a self-tought musician, but he took part to various clinics and drums stages, among which Siena Jazz, where he studied with Bruno Biriaco, Roberto Gatto and Ettore Fioravanti.
He also gradueted at DAMS (Department of Fine Arts, Music and Spectacle at Bologna University) discussing a work about the extramusical elements in the jazz performance, and studied composition with M° Alfredo Impullitti. More info - exb.it/inglese/artists/cusa_e.htm and roypaci.it/home.htm
 
Об альбоме (сборнике)
Man, this is great! To the extent that I laughed out loud from the sheer pleasure of listening to these guy's having fun with music. Free, intense, rhythmic, funky, wild at times, subdued at others (though rarely). The band consists of Gianni Gebbia on sax, Rosario Paci on trumpet and Francesco Cusa on drums, all three from Sicily and all three excellent musicians. The tracks are short and compact, there are no long blowing sessions, but focused, concise little work-outs, often with a kind of melodic theme and some pre-conceived structural component, and the rest is wild and joyful interaction. This is music as intense, fresh, muscular and direct as it gets. Don't miss it.
 
Состав
Roy Paci - trumpet
Gianni Gebbia - alto saxophone
Francesco Cusa - drums
Any questions -> support@pro-jazz.com. По всем вопросам пишите -> support@pro-jazz.com
12:58
159
Нет комментариев. Ваш будет первым!