Вы используете незарегистрированную версию компонента "Вкладки"!

Поиск

(Free Jazz, Avant-Garde Jazz) Christian Vander Trio - 65! - 1993, FLAC (tracks+.cue), lossless

(Free Jazz, Avant-Garde Jazz) Christian Vander Trio - 65! - 1993, FLAC (tracks+.cue), lossless
Треклист:
Christian Vander Trio / 65!
Жанр: Free Jazz, Avant-Garde Jazz
Страна-производитель диска: France
Год издания: 1993
Издатель (лейбл): Seventh Records
Номер по каталогу: A X
Страна: France
Аудиокодек: FLAC (*.flac)
Тип рипа: tracks+.cue
Битрейт аудио: lossless
Продолжительность: 72:03
Источник (релизер): waffles.fm
Наличие сканов в содержимом раздачи:
Треклист:
1 65! 6:15
2 Brazilia 10:35
3 The Coaster 5:54
4 Giant Steps 2:46
5 Lonnie's Lament 15:48
6 Tensions 7:57
7 Skunckadelic's 8:56
8 Doktor Pitt 5:19
9 65! 8:21
 
Лог создания рипа
Exact Audio Copy V0.99 prebeta 5 from 4. May 2009
EAC extraction logfile from 11. July 2010, 8:20
Christian Vander Trio / 65!
Used drive : SONY CD-RW CRX216E Adapter: 1 ID: 0
Read mode : Secure
Utilize accurate stream : Yes
Defeat audio cache : Yes
Make use of C2 pointers : No
Read offset correction : 6
Overread into Lead-In and Lead-Out : No
Fill up missing offset samples with silence : Yes
Delete leading and trailing silent blocks : No
Null samples used in CRC calculations : Yes
Used interface : Installed external ASPI interface
Gap handling : Appended to previous track
Used output format : User Defined Encoder
Selected bitrate : 1024 kBit/s
Quality : High
Add ID3 tag : No
Command line compressor : C:\Program Files\Exact Audio Copy\Flac\flac.exe
Additional command line options : -6 -V -T "ARTIST=%a" -T "TITLE=%t" -T "ALBUM=%g" -T "DATE=%y" -T "TRACKNUMBER=%n" -T "GENRE=%m" -T "COMMENT=%e" %s -o %d
TOC of the extracted CD
Track | Start | Length | Start sector | End sector
---------------------------------------------------------
1 | 0:00.32 | 6:17.55 | 32 | 28361
2 | 6:18.12 | 10:35.53 | 28362 | 76039
3 | 16:53.65 | 5:55.17 | 76040 | 102681
4 | 22:49.07 | 2:48.63 | 102682 | 115344
5 | 25:37.70 | 15:50.17 | 115345 | 186611
6 | 41:28.12 | 8:00.10 | 186612 | 222621
7 | 49:28.22 | 8:58.53 | 222622 | 263024
8 | 58:27.00 | 5:17.50 | 263025 | 286849
9 | 63:44.50 | 8:19.15 | 286850 | 324289
Track 1
Filename F:\WHAT CD\Christian Vander Trio - 65!\01 - 65! (le 11 juin 1993).wav
Pre-gap length 0:00:02.32
Peak level 96.2 %
Track quality 100.0 %
Test CRC 5ECE4166
Copy CRC 5ECE4166
Track not present in AccurateRip database
Copy OK
Track 2
Filename F:\WHAT CD\Christian Vander Trio - 65!\02 - Brazilia.wav
Pre-gap length 0:00:02.02
Peak level 96.0 %
Track quality 100.0 %
Test CRC 27534091
Copy CRC 27534091
Track not present in AccurateRip database
Copy OK
Track 3
Filename F:\WHAT CD\Christian Vander Trio - 65!\03 - The Coaster.wav
Peak level 87.3 %
Track quality 100.0 %
Test CRC 6248EA66
Copy CRC 6248EA66
Track not present in AccurateRip database
Copy OK
Track 4
Filename F:\WHAT CD\Christian Vander Trio - 65!\04 - Giant Steps.wav
Pre-gap length 0:00:01.10
Peak level 77.2 %
Track quality 100.0 %
Test CRC 424DE838
Copy CRC 424DE838
Track not present in AccurateRip database
Copy OK
Track 5
Filename F:\WHAT CD\Christian Vander Trio - 65!\05 - Lonnie's Lament.wav
Pre-gap length 0:00:02.09
Peak level 86.2 %
Track quality 100.0 %
Test CRC A8CEA2E6
Copy CRC A8CEA2E6
Track not present in AccurateRip database
Copy OK
Track 6
Filename F:\WHAT CD\Christian Vander Trio - 65!\06 - Tensions.wav
Pre-gap length 0:00:00.51
Peak level 95.7 %
Track quality 100.0 %
Test CRC F25F6F00
Copy CRC F25F6F00
Track not present in AccurateRip database
Copy OK
Track 7
Filename F:\WHAT CD\Christian Vander Trio - 65!\07 - Skunckadelic's.wav
Pre-gap length 0:00:00.23
Peak level 78.0 %
Track quality 100.0 %
Test CRC 2F2020F5
Copy CRC 2F2020F5
Track not present in AccurateRip database
Copy OK
Track 8
Filename F:\WHAT CD\Christian Vander Trio - 65!\08 - Doktor Pitt.wav
Pre-gap length 0:00:03.00
Peak level 86.9 %
Track quality 100.0 %
Test CRC 0A4CB7ED
Copy CRC 0A4CB7ED
Track not present in AccurateRip database
Copy OK
Track 9
Filename F:\WHAT CD\Christian Vander Trio - 65!\09 - 65! (le 15 juin 1993).wav
Pre-gap length 0:00:01.32
Peak level 92.4 %
Track quality 100.0 %
Test CRC 7628408A
Copy CRC 7628408A
Track not present in AccurateRip database
Copy OK
None of the tracks are present in the AccurateRip database
No errors occurred
End of status report
 
Содержание индексной карты (.CUE)
REM DISCID 7710E309
REM COMMENT "ExactAudioCopy v0.99pb5"
PERFORMER "Christian Vander Trio"
TITLE "65!"
FILE "01 - 65! (le 11 juin 1993).wav" WAVE
TRACK 01 AUDIO
TITLE "65! (le 11 juin 1993)"
PERFORMER "Christian Vander Trio"
PREGAP 00:00:32
INDEX 01 00:00:00
TRACK 02 AUDIO
TITLE "Brazilia"
PERFORMER "Christian Vander Trio"
INDEX 00 06:15:53
FILE "02 - Brazilia.wav" WAVE
INDEX 01 00:00:00
FILE "03 - The Coaster.wav" WAVE
TRACK 03 AUDIO
TITLE "The Coaster"
PERFORMER "Christian Vander Trio"
INDEX 01 00:00:00
TRACK 04 AUDIO
TITLE "Giant Steps"
PERFORMER "Christian Vander Trio"
INDEX 00 05:54:07
FILE "04 - Giant Steps.wav" WAVE
INDEX 01 00:00:00
TRACK 05 AUDIO
TITLE "Lonnie's Lament"
PERFORMER "Christian Vander Trio"
INDEX 00 02:46:54
FILE "05 - Lonnie's Lament.wav" WAVE
INDEX 01 00:00:00
TRACK 06 AUDIO
TITLE "Tensions"
PERFORMER "Christian Vander Trio"
INDEX 00 15:49:41
FILE "06 - Tensions.wav" WAVE
INDEX 01 00:00:00
TRACK 07 AUDIO
TITLE "Skunckadelic's"
PERFORMER "Christian Vander Trio"
INDEX 00 07:59:62
FILE "07 - Skunckadelic's.wav" WAVE
INDEX 01 00:00:00
TRACK 08 AUDIO
TITLE "Doktor Pitt"
PERFORMER "Christian Vander Trio"
INDEX 00 08:55:53
FILE "08 - Doktor Pitt.wav" WAVE
INDEX 01 00:00:00
TRACK 09 AUDIO
TITLE "65! (le 15 juin 1993)"
PERFORMER "Christian Vander Trio"
INDEX 00 05:16:18
FILE "09 - 65! (le 15 juin 1993).wav" WAVE
INDEX 01 00:00:00
 
Лог проверки качества
d:\>d:\aucdtect -d/-m0 d:\zzz\*.wav
auCDtect: CD records authenticity detector, version 0.8.2
Copyright (c) 2004 Oleg Berngardt. All rights reserved.
Copyright (c) 2004 Alexander Djourik. All rights reserved.
------------------------------------------------------------
Processing file: [01. 65! (le 11 juin 1993).wav]
------------------------------------------------------------
This track looks like CDDA with probability 100%
------------------------------------------------------------
Processing file: [02. Brazilia.wav]
------------------------------------------------------------
This track looks like CDDA with probability 100%
------------------------------------------------------------
Processing file: [03. The Coaster.wav]
------------------------------------------------------------
This track looks like CDDA with probability 100%
------------------------------------------------------------
Processing file: [04. Giant Steps.wav]
------------------------------------------------------------
This track looks like CDDA with probability 100%
------------------------------------------------------------
Processing file: [05. Lonnie's Lament.wav]
------------------------------------------------------------
This track looks like CDDA with probability 100%
------------------------------------------------------------
Processing file: [06. Tensions.wav]
------------------------------------------------------------
This track looks like CDDA with probability 100%
------------------------------------------------------------
Processing file: [07. Skunckadelic's.wav]
------------------------------------------------------------
This track looks like CDDA with probability 100%
------------------------------------------------------------
Processing file: [08. Doktor Pitt.wav]
------------------------------------------------------------
This track looks like CDDA with probability 100%
------------------------------------------------------------
Processing file: [09. 65! (le 15 juin 1993).wav]
------------------------------------------------------------
This track looks like CDDA with probability 100%
------------------------------------------------------------
Final Conclusion:
------------------------------------------------------------
These tracks looks like CDDA with probability 100%
 
Состав
Performer – Christian Vander, Emmanuel Borghi, Philippe Dardelle
Composed by: Christian Vander (1,9), John Coltrane (2,4,5), Grachan Moncur III (3), Emmanuel Borghi (6,7), Pharoah Sanders (8)
Any questions -> support@pro-jazz.com. По всем вопросам пишите -> support@pro-jazz.com
11:04
165
Нет комментариев. Ваш будет первым!