Вы используете незарегистрированную версию компонента "Вкладки"!

Поиск

(Free Jazz, Avant-Garde Jazz) [CD] Sun Ra and his Solar Arkestra - Secrets of the Sun (1962) - 2008, FLAC (tracks+.cue), lossless

(Free Jazz, Avant-Garde Jazz) [CD] Sun Ra and his Solar Arkestra - Secrets of the Sun (1962) - 2008, FLAC (tracks+.cue), lossless
Треклист:
Sun Ra and his Solar Arkestra - Secrets of the Sun (1962)
Жанр: Free Jazz, Avant-Garde Jazz
Носитель: CD
Страна-производитель диска: Швеция
Год издания: 2008
Издатель (лейбл): Atavistic
Номер по каталогу: ALP266CD
Страна исполнителя (группы): USA
Аудиокодек: FLAC (*.flac)
Тип рипа: tracks+.cue
Битрейт аудио: lossless
Продолжительность: [0:51:03.70]
Источник (релизер): собственный рип
Наличие сканов в содержимом раздачи: да
Треклист:
01. Friendly Galaxy [0:04:56.09]
02. Solar Differentials [0:06:26.59]
03. Space Aura [0:05:24.58]
04. Love In Outer Space [0:04:39.69]
05. Reflects Motion [0:09:12.32]
06. Solar Symbols [0:02:48.23]
07. Flight To Mars* [0:17:35.45]
 
Лог создания рипа
Exact Audio Copy V1.0 beta 4 from 7. December 2014
Отчёт EAC об извлечении, выполненном 7. апреля 2015, 23:56
Sun Ra and his Solar Arkestra / Secrets Of The Sun
Дисковод: HL-DT-STDVDRAM GUA0N Adapter: 1 ID: 0
Режим чтения : Достоверность
Использование точного потока : Да
Отключение кэша аудио : Да
Использование указателей C2 : Нет
Коррекция смещения при чтении : 6
Способность читать области Lead-in и Lead-out : Нет
Заполнение пропущенных сэмплов тишиной : Да
Удаление блоков с тишиной в начале и конце : Нет
При вычислениях CRC использовались нулевые сэмплы : Да
Интерфейс : Встроенный Win32-интерфейс для Win NT/2000
Обработка зазоров : Добавлено к предыдущему треку
Выходной формат : Пользовательский кодировщик
Выбранный битрейт : 768 kBit/s
Качество : Высокий
Добавление ID3-тега : Нет
Утилита сжатия : C:\Program Files (x86)\Exact Audio Copy\FLAC\FLAC.EXE
Дополнительные параметры : -6 -V -T "ARTIST=%artist%" -T "TITLE=%title%" -T "ALBUM=%albumtitle%" -T "DATE=%year%" -T "TRACKNUMBER=%tracknr%" -T "GENRE=%genre%" -T "COMMENT=%comment%" -T "BAND=%albuminterpret%" -T "ALBUMARTIST=%albuminterpret%" -T "COMPOSER=%composer%" %haslyrics%--tag-from-file=LYRICS="%lyricsfile%"%haslyrics% -T "DISCNUMBER=%cdnumber%" -T "TOTALDISCS=%totalcds%" -T "TOTALTRACKS=%numtracks%" %hascover%--picture="%coverfile%"%hascover% %source% -o %dest%
TOC извлечённого CD
Трек | Старт | Длительность | Начальный сектор | Конечный сектор
---------------------------------------------------------------------
1 | 0:00.00 | 4:56.09 | 0 | 22208
2 | 4:56.09 | 6:26.59 | 22209 | 51217
3 | 11:22.68 | 5:24.58 | 51218 | 75575
4 | 16:47.51 | 4:39.69 | 75576 | 96569
5 | 21:27.45 | 9:12.32 | 96570 | 138001
6 | 30:40.02 | 2:48.23 | 138002 | 150624
7 | 33:28.25 | 17:35.45 | 150625 | 229794
Трек 1
Имя файла E:\EAC\01. Sun Ra and his Solar Arkestra - Friendly Galaxy.wav
Длина предзазора 0:00:02.00
Пиковый уровень 96.7 %
Скорость извлечения 2.4 X
Качество трека 99.9 %
CRC теста AAFD9AA8
CRC копии AAFD9AA8
Точное извлечение (достоверность 3) [0C0F6A99] (AR v2)
Копирование... OK
Трек 2
Имя файла E:\EAC\02. Sun Ra and his Solar Arkestra - Solar Differentials.wav
Длина предзазора 0:00:05.00
Пиковый уровень 97.0 %
Скорость извлечения 3.0 X
Качество трека 99.9 %
CRC теста 2541C25D
CRC копии 2541C25D
Точное извлечение (достоверность 3) [A3DAB0E0] (AR v2)
Копирование... OK
Трек 3
Имя файла E:\EAC\03. Sun Ra and his Solar Arkestra - Space Aura.wav
Длина предзазора 0:00:04.74
Пиковый уровень 97.1 %
Скорость извлечения 3.6 X
Качество трека 100.0 %
CRC теста 13CB47DB
CRC копии 13CB47DB
Точное извлечение (достоверность 3) [3D0F556B] (AR v2)
Копирование... OK
Трек 4
Имя файла E:\EAC\04. Sun Ra and his Solar Arkestra - Love In Outer Space.wav
Длина предзазора 0:00:05.00
Пиковый уровень 97.0 %
Скорость извлечения 1.6 X
Качество трека 100.0 %
CRC теста B639BB32
CRC копии B639BB32
Точное извлечение (достоверность 3) [BBD8D664] (AR v2)
Копирование... OK
Трек 5
Имя файла E:\EAC\05. Sun Ra and his Solar Arkestra - Reflects Motion.wav
Длина предзазора 0:00:05.00
Пиковый уровень 96.6 %
Скорость извлечения 4.2 X
Качество трека 99.9 %
CRC теста 07EFD879
CRC копии 07EFD879
Точное извлечение (достоверность 3) [DF55A839] (AR v2)
Копирование... OK
Трек 6
Имя файла E:\EAC\06. Sun Ra and his Solar Arkestra - Solar Symbols.wav
Длина предзазора 0:00:05.00
Пиковый уровень 96.1 %
Скорость извлечения 1.5 X
Качество трека 99.9 %
CRC теста 89BD0682
CRC копии 89BD0682
Точное извлечение (достоверность 3) [119B8529] (AR v2)
Копирование... OK
Трек 7
Имя файла E:\EAC\07. Sun Ra and his Solar Arkestra - Flight To Mars.wav
Длина предзазора 0:00:10.00
Пиковый уровень 77.4 %
Скорость извлечения 2.3 X
Качество трека 100.0 %
CRC теста 48C13E9D
CRC копии 48C13E9D
Точное извлечение (достоверность 3) [DFD6DA28] (AR v2)
Копирование... OK
Все треки извлечены точно
Ошибок не произошло
Конец отчёта
==== Контрольная сумма отчёта A81E9A7CDB0A8A2FD7AD1B26E9E436CDA8F2BCB308E1A114FB03351E296EC7DF ====
 
Содержание индексной карты (.CUE)
REM GENRE "Free Jazz"
REM DATE 2008
REM DISCID 570BF707
REM COMMENT "ExactAudioCopy v1.0b4"
PERFORMER "Sun Ra and this Solar Arkestra"
TITLE "Secrets Of The Sun"
FILE "01. Sun Ra and his Solar Arkestra - Friendly Galaxy.wav" WAVE
TRACK 01 AUDIO
TITLE "Friendly Galaxy"
PERFORMER "Sun Ra and this Solar Arkestra"
FLAGS DCP
INDEX 01 00:00:00
TRACK 02 AUDIO
TITLE "Solar Differentials"
PERFORMER "Sun Ra and his Solar Arkestra"
FLAGS DCP
INDEX 00 04:51:09
FILE "02. Sun Ra and his Solar Arkestra - Solar Differentials.wav" WAVE
INDEX 01 00:00:00
TRACK 03 AUDIO
TITLE "Space Aura"
PERFORMER "Sun Ra and his Solar Arkestra"
FLAGS DCP
INDEX 00 06:21:60
FILE "03. Sun Ra and his Solar Arkestra - Space Aura.wav" WAVE
INDEX 01 00:00:00
TRACK 04 AUDIO
TITLE "Love In Outer Space"
PERFORMER "Sun Ra and his Solar Arkestra"
FLAGS DCP
INDEX 00 05:19:58
FILE "04. Sun Ra and his Solar Arkestra - Love In Outer Space.wav" WAVE
INDEX 01 00:00:00
TRACK 05 AUDIO
TITLE "Reflects Motion"
PERFORMER "Sun Ra and his Solar Arkestra"
FLAGS DCP
INDEX 00 04:34:69
FILE "05. Sun Ra and his Solar Arkestra - Reflects Motion.wav" WAVE
INDEX 01 00:00:00
TRACK 06 AUDIO
TITLE "Solar Symbols"
PERFORMER "Sun Ra and his Solar Arkestra"
FLAGS DCP
INDEX 00 09:07:32
FILE "06. Sun Ra and his Solar Arkestra - Solar Symbols.wav" WAVE
INDEX 01 00:00:00
TRACK 07 AUDIO
TITLE "Flight To Mars"
PERFORMER "Sun Ra and his Solar Arkestra"
FLAGS DCP
INDEX 00 02:38:23
FILE "07. Sun Ra and his Solar Arkestra - Flight To Mars.wav" WAVE
INDEX 01 00:00:00
 
Лог проверки качества
-----------------------
DON'T MODIFY THIS FILE
-----------------------
PERFORMER: auCDtect Task Manager, ver. 1.6.0 RC1 build 1.6.0.1
Copyright (c) 2008-2010 y-soft. All rights reserved
http://y-soft.org
ANALYZER: auCDtect: CD records authenticity detector, version 0.8.2
Copyright (c) 2004 Oleg Berngardt. All rights reserved.
Copyright (c) 2004 Alexander Djourik. All rights reserved.
FILE: 07. Sun Ra and his Solar Arkestra - Flight To Mars.flac
Size: 65163789 Hash: 57CBA076B96D3B245F76119D12DAB1C6 Accuracy: -m0
Conclusion: CDDA 100%
Signature: 96D61387B02EF35C4B81DA1EAC74D4080B394F6B
FILE: 06. Sun Ra and his Solar Arkestra - Solar Symbols.flac
Size: 14488117 Hash: 8F0EBABD2E08647761E70197E27088FE Accuracy: -m0
Conclusion: CDDA 100%
Signature: 388FCB42F558225F18364EF788BE0D099C3DB77A
FILE: 05. Sun Ra and his Solar Arkestra - Reflects Motion.flac
Size: 49163144 Hash: 220FF75F49CB9D3483D0A7E114D3EC60 Accuracy: -m0
Conclusion: CDDA 100%
Signature: 35F61563EAB4C97D3811A4FA691DC938FF6E2681
FILE: 04. Sun Ra and his Solar Arkestra - Love In Outer Space.flac
Size: 24233832 Hash: 85E8B3D3D3AF921F9E16770B96254F2B Accuracy: -m0
Conclusion: CDDA 99%
Signature: FFD9B51336BF3E565EC7E8A7C368673082862C81
FILE: 03. Sun Ra and his Solar Arkestra - Space Aura.flac
Size: 29768011 Hash: 541DAED7AE2CB9DD9AD4169B8262D9A1 Accuracy: -m0
Conclusion: CDDA 100%
Signature: BF537F2960A79D2A75AF5F6B38BF1DE8433CAA53
FILE: 02. Sun Ra and his Solar Arkestra - Solar Differentials.flac
Size: 32164495 Hash: 810336EE7C213C7CE8360CDFB1E8DF2C Accuracy: -m0
Conclusion: CDDA 100%
Signature: BAA527995AD9CEEBA031C1611314EF74013455BA
FILE: 01. Sun Ra and his Solar Arkestra - Friendly Galaxy.flac
Size: 22903708 Hash: 0B1209829EB43D4252A55D6C5588BB08 Accuracy: -m0
Conclusion: CDDA 100%
Signature: F589D9F785E75490CA9032D21CC3E476C1025509
 
Скриншот спектра частот
 
Об альбоме
Secrets of the Sun consists of sessions recorded by drummer Tommy "Bugs" Hunter in 1962 at the Choreographer's Workshop in New York City, the Arkestra's regular rehearsal studio. Since they had only recently moved to New York (some decided to stay in Chicago), these are small-group Arkestra recordings. This is an interesting transitional album because you can still hear echoes of the Chicago sound in some of the pieces, but the sound is growing beyond merely "exotic," with percussion playing an increasingly larger role and the pieces starting to sound more amorphous. "The Friendly Galaxy" has the same sort of mysterious vibe as "Ancient Aetheopia," with nice trumpet and piano work as well as John Gilmore on bass clarinet (which he plays on a couple cuts). "Solar Differentials" has a similar but weirder feel because the horns change to "Space Bird Sounds" and Art Jenkins adds some of his distinctive "Space Voice." "Space Aura" is built on a great horn riff, while both Gilmore (again on bass clarinet) and Sun Ra both shine on a stripped-down version of "Love in Outer Space." Things head a bit more out for the last couple tracks, where percussion and reverb start to dominate the sound, as they would on several of the Choreographer Workshop recordings. This is an interesting album for Ra fans because it's such a small band and shows how new ideas were taking hold in the music, not to mention Gilmore's use of bass clarinet, which he stopped playing completely sometime in the '60s. [In 2008, Secrets of the Sun was reissued by Atavistic with an unreleased 17 minute bonus track.]
 
Состав
Personnel:
Sun Ra: piano (1-5, 7), gong (2, 6), sun harp (6);
Eddie Gale: trumpet (3);
Al Evans: flugelhorn (1, 7);
Marshall Allen: alto saxophone (3), flute (1, 5, 7), morrow (4), percussion (1, 6);
John Gilmore: tenor saxophone (3, 5, 7), bass clarinet (1, 4), percussion (6), space drums (4), space bird sounds (2), voice (7);
Pat Patrick: baritone saxophone (3, 7), flute (1), bongo (6), space drums (4);
Calvin Newborn: electric guitar (1, 7);
Ronnie Boykins: bass (1-5, 7);
Tommy Hunter: drums (1), percussion (5, 6), space bird sounds (2), reverb (2, 6);
C. Scoby Stroman: drums (2, 3, 5, 7);
Jimmy Johnson: percussion (4);
Art Jenkins: space voice (2).
Дополнительная информация:
* - бонус-трек, ранее не издавался, включен впервые в издание 2008 года.
По всем вопросам пишите личное сообщение пользователю M0p94ok.
10:49
271
Нет комментариев. Ваш будет первым!