Вы используете незарегистрированную версию компонента "Вкладки"!

Поиск

(Free Jazz, Avant-Garde Jazz) [CD] Rova Saxophone Quartet - PTOW!! - 1995, FLAC (tracks+.cue), lossless

(Free Jazz, Avant-Garde Jazz) [CD] Rova Saxophone Quartet - PTOW!! - 1995, FLAC (tracks+.cue), lossless
Треклист:
Rova Saxophone Quartet - PTOW!! (1995)
Жанр: Free Jazz, Avant-Garde Jazz
Носитель: CD
Страна-производитель диска: Canada
Год издания: 1996
Издатель (лейбл): Les Disques VICTO
Номер по каталогу: VICTO CD 040
Страна: USA, San Francisco
Аудиокодек: FLAC (*.flac)
Тип рипа: tracks+.cue
Битрейт аудио: lossless
Продолжительность: 00:55:35
Источник (релизер): рип мой. диск тоже.
Наличие сканов в содержимом раздачи: да, фото
Треклист:
01. Testimony (Adams) (8:55)
02. Crossroads (Raskin) (9:02)
03. Ptow!! (Ochs) (6:47)
04. The Farallons (Adams) (7:21)
05. Wig on (Adams) (7:23)
06. Zygomatic (Ackley) (9:21)
07. Critical Thought (Raskin) (6:46)
 
Лог создания рипа
Exact Audio Copy V1.0 beta 1 from 15. November 2010
EAC extraction logfile from 19. March 2014, 0:42
ROVA saxophone quartet / PTOW!!
Used drive : Optiarc DVD RW AD-7200A Adapter: 0 ID: 0
Read mode : Secure
Utilize accurate stream : Yes
Defeat audio cache : Yes
Make use of C2 pointers : No
Read offset correction : 48
Overread into Lead-In and Lead-Out : No
Fill up missing offset samples with silence : Yes
Delete leading and trailing silent blocks : No
Null samples used in CRC calculations : Yes
Used interface : Native Win32 interface for Win NT & 2000
Gap handling : Appended to previous track
Used output format : User Defined Encoder
Selected bitrate : 768 kBit/s
Quality : High
Add ID3 tag : No
Command line compressor : C:\Program Files\Exact Audio Copy\Flac\flac.exe
Additional command line options : -8 -V -T "ARTIST=%a" -T "TITLE=%t" -T "ALBUM=%g" -T "DATE=%y" -T "TRACKNUMBER=%n" -T "TOTALTRACKS=%x" -T "GENRE=%m" -T "ALBUMARTIST=%v" -T "ALBUM ARTIST=%v" -T "COMMENT=EAC Secure Mode, Test & Copy, AccurateRip, FLAC -8" %s
TOC of the extracted CD
Track | Start | Length | Start sector | End sector
---------------------------------------------------------
1 | 0:00.00 | 8:54.60 | 0 | 40109
2 | 8:54.60 | 9:02.22 | 40110 | 80781
3 | 17:57.07 | 6:47.33 | 80782 | 111339
4 | 24:44.40 | 7:20.60 | 111340 | 144399
5 | 32:05.25 | 7:22.65 | 144400 | 177614
6 | 39:28.15 | 9:21.05 | 177615 | 219694
7 | 48:49.20 | 6:46.07 | 219695 | 250151
Track 1
Filename D:\Rova - PTOW!! (1996) [FLAC]\01 - Testimony (Adams).wav
Pre-gap length 0:00:02.00
Peak level 99.9 %
Extraction speed 14.9 X
Track quality 100.0 %
Test CRC 97C7586C
Copy CRC 97C7586C
Accurately ripped (confidence 1) [195121AC]
Copy OK
Track 2
Filename D:\Rova - PTOW!! (1996) [FLAC]\02 - Crossroads (Raskin).wav
Pre-gap length 0:00:08.43
Peak level 79.4 %
Extraction speed 18.0 X
Track quality 100.0 %
Test CRC 9F789875
Copy CRC 9F789875
Accurately ripped (confidence 1) [1D79B9F0]
Copy OK
Track 3
Filename D:\Rova - PTOW!! (1996) [FLAC]\03 - Ptow!! (Ochs).wav
Pre-gap length 0:00:07.40
Peak level 99.7 %
Extraction speed 18.3 X
Track quality 99.9 %
Test CRC E9044316
Copy CRC E9044316
Accurately ripped (confidence 1) [1C5ED5BF]
Copy OK
Track 4
Filename D:\Rova - PTOW!! (1996) [FLAC]\04 - The Farallons (Adams).wav
Pre-gap length 0:00:05.43
Peak level 67.8 %
Extraction speed 21.9 X
Track quality 100.0 %
Test CRC 0CDE51B6
Copy CRC 0CDE51B6
Accurately ripped (confidence 1) [D32B4221]
Copy OK
Track 5
Filename D:\Rova - PTOW!! (1996) [FLAC]\05 - Wig on (Adams).wav
Pre-gap length 0:00:03.40
Peak level 100.0 %
Extraction speed 23.5 X
Track quality 100.0 %
Test CRC A1DC89B8
Copy CRC A1DC89B8
Accurately ripped (confidence 1) [8B79E759]
Copy OK
Track 6
Filename D:\Rova - PTOW!! (1996) [FLAC]\06 - Zygomatic (Ackley).wav
Pre-gap length 0:00:06.43
Peak level 99.9 %
Extraction speed 25.9 X
Track quality 100.0 %
Test CRC B246C870
Copy CRC B246C870
Accurately ripped (confidence 1) [EEA7E73F]
Copy OK
Track 7
Filename D:\Rova - PTOW!! (1996) [FLAC]\07 - Critical Thought (Raskin).wav
Pre-gap length 0:00:03.40
Peak level 100.0 %
Extraction speed 24.8 X
Track quality 99.9 %
Test CRC 09A784D2
Copy CRC 09A784D2
Accurately ripped (confidence 1) [4BF584AF]
Copy OK
All tracks accurately ripped
No errors occurred
End of status report
==== Log checksum CD9F4425F036B25F3C034F82083090FD4C6E30BD1859ABCDAC28867E55CC8142 ====
 
Содержание индексной карты (.CUE)
REM GENRE Avantgarde
REM DATE 1995
REM DISCID 620D0707
REM COMMENT "ExactAudioCopy v1.0b1"
PERFORMER "ROVA saxophone quartet"
TITLE "PTOW!!"
FILE "01 - Testimony (Adams).wav" WAVE
TRACK 01 AUDIO
TITLE "Testimony (Adams)"
PERFORMER "ROVA saxophone quartet"
INDEX 01 00:00:00
TRACK 02 AUDIO
TITLE "Crossroads (Raskin)"
PERFORMER "ROVA saxophone quartet"
INDEX 00 08:46:17
FILE "02 - Crossroads (Raskin).wav" WAVE
INDEX 01 00:00:00
TRACK 03 AUDIO
TITLE "Ptow!! (Ochs)"
PERFORMER "ROVA saxophone quartet"
INDEX 00 08:54:57
FILE "03 - Ptow!! (Ochs).wav" WAVE
INDEX 01 00:00:00
TRACK 04 AUDIO
TITLE "The Farallons (Adams)"
PERFORMER "ROVA saxophone quartet"
INDEX 00 06:41:65
FILE "04 - The Farallons (Adams).wav" WAVE
INDEX 01 00:00:00
TRACK 05 AUDIO
TITLE "Wig on (Adams)"
PERFORMER "ROVA saxophone quartet"
INDEX 00 07:17:20
FILE "05 - Wig on (Adams).wav" WAVE
INDEX 01 00:00:00
TRACK 06 AUDIO
TITLE "Zygomatic (Ackley)"
PERFORMER "ROVA saxophone quartet"
INDEX 00 07:16:22
FILE "06 - Zygomatic (Ackley).wav" WAVE
INDEX 01 00:00:00
TRACK 07 AUDIO
TITLE "Critical Thought (Raskin)"
PERFORMER "ROVA saxophone quartet"
INDEX 00 09:17:40
FILE "07 - Critical Thought (Raskin).wav" WAVE
INDEX 01 00:00:00
 
Об альбоме (сборнике)
Larry Ochs writes: “Most of our CD projects take a lot of time in the studio, a lot of hard work. But this CD consists of seven pieces that are all written by members of the quartet, and they were recorded after years of performing them; they all just rolled out in one or two easy takes. As a result, the CD just flows right along and is one of my favorite overall Rova CDs.” From Option Magazine: “”After 20 years Rova is still the saxophone quartet most likely to put a crease in your mind. There is rhythm and movement in their compositions but their stimulating work is often a million miles from a hot chorus of “Lester Leaps In.” (Rova) plays with such cohesion that they often sound like one big horn instead of four separate ones. What they give you is exciting music that takes in blues, symphonies, marches, swing and other things and turns them into fascinating new shapes. Rova is one of the most individual and powerful groups in the avant-garde world.”
 
Состав
Alto Saxophone, Baritone Saxophone, Sopranino Saxophone - Jon Raskin
Alto Saxophone, Sopranino Saxophone - Steve Adams
Soprano Saxophone, Tenor Saxophone - Bruce Ackley
Tenor Saxophone, Sopranino Saxophone - Larry Ochs
Доп. информация: Recorded 19th & 22nd December 1995 at Studios Sharkbyte, Oakland.
По всем вопросам пишите личное сообщение пользователю M0p94ok.
00:24
131
Нет комментариев. Ваш будет первым!