Вы используете незарегистрированную версию компонента "Вкладки"!

Поиск

(Free Jazz, Avant-garde Jazz) [CD] Kali. Z. Fasteau, Kidd Jordan & Michael T.A. Thompson - People of the Ninth. New Orleans and the Hurricane 2005 - 2006, FLAC (tracks+.cue), lossless

(Free Jazz, Avant-garde Jazz) [CD] Kali. Z. Fasteau, Kidd Jordan & Michael T.A. Thompson - People of the Ninth. New Orleans and the Hurricane 2005 - 2006, FLAC (tracks+.cue), lossless
Треклист:
Kali. Z. Fasteau, Kidd Jordan & Michael T.A. Thompson / People of the Ninth. New Orleans and the Hurricane 2005
Жанр: Free Jazz, Avant-garde Jazz
Носитель: CD
Страна-производитель диска (релиза): US
Год издания: 2006
Издатель (лейбл): Flying Note
Номер по каталогу: FNCD 9011
Аудиокодек: FLAC (*.flac)
Тип рипа: tracks+.cue
Битрейт аудио: lossless
Продолжительность: 58:38
Источник (релизер): whatcd (WarehouseMouse)
Наличие сканов в содержимом раздачи: нет
Треклист:
1. Levees, Lies & Lies 6:34
2. Rising Winds 4:15
3. Right of Return 5:10
4. What Once Was 5:39
5. Whales' Advice 4:08
6. Rescue Denied 6:03
7. Professor Jordan's Favorite Horse 4:00
8. Mr. October 7:00
9. Concentration Dome 4:00
10. Diaspora 4:39
11. Oil & Water 0:51
12. The Dynamite Question 3:21
13. Solace 2:52
 
Лог создания рипа
Exact Audio Copy V1.0 beta 3 from 29. August 2011
EAC extraction logfile from 8. June 2015, 14:19
Kali Z. Fasteau & Kidd Jordan / People of the Ninth
Used drive : HL-DT-STDVDRAM SP60NB50 Adapter: 0 ID: 0
Read mode : Secure
Utilize accurate stream : Yes
Defeat audio cache : Yes
Make use of C2 pointers : No
Read offset correction : 6
Overread into Lead-In and Lead-Out : No
Fill up missing offset samples with silence : Yes
Delete leading and trailing silent blocks : No
Null samples used in CRC calculations : Yes
Used interface : Native Win32 interface for Win NT & 2000
Gap handling : Appended to previous track
Used output format : User Defined Encoder
Selected bitrate : 1024 kBit/s
Quality : High
Add ID3 tag : No
Command line compressor : C:\Program Files (x86)\FLAC\flac.exe
Additional command line options : -8 -V -T "ARTIST=%artist%" -T "TITLE=%title%" -T "ALBUM=%albumtitle%" -T "DATE=%year%" -T "TRACKNUMBER=%tracknr%" -T "GENRE=%genre%" -T "PERFORMER=%albuminterpret%" -T "COMPOSER=%composer%" %haslyrics%--tag-from-file=LYRICS="%lyricsfile%"%haslyrics% -T "ALBUMARTIST=%albumartist%" -T "DISCNUMBER=%cdnumber%" -T "TOTALDISCS=%totalcds%" -T "TOTALTRACKS=%numtracks%" -T "COMMENT=%comment%" %source% -o %dest%
TOC of the extracted CD
Track | Start | Length | Start sector | End sector
---------------------------------------------------------
1 | 0:00.00 | 6:34.08 | 0 | 29557
2 | 6:34.08 | 4:15.71 | 29558 | 48753
3 | 10:50.04 | 5:10.13 | 48754 | 72016
4 | 16:00.17 | 5:39.36 | 72017 | 97477
5 | 21:39.53 | 4:08.74 | 97478 | 116151
6 | 25:48.52 | 6:03.23 | 116152 | 143399
7 | 31:52.00 | 4:00.12 | 143400 | 161411
8 | 35:52.12 | 7:00.10 | 161412 | 192921
9 | 42:52.22 | 4:00.27 | 192922 | 210948
10 | 46:52.49 | 4:39.61 | 210949 | 231934
11 | 51:32.35 | 0:51.52 | 231935 | 235811
12 | 52:24.12 | 3:21.51 | 235812 | 250937
13 | 55:45.63 | 2:52.59 | 250938 | 263896
Track 1
Filename C:\EAC Rips\Kali Z. Fasteau & Kidd Jordan - People of the Ninth (2006) [FLAC]\01 Levees, Lies & Lives.wav
Pre-gap length 0:00:02.00
Peak level 100.0 %
Extraction speed 1.3 X
Track quality 100.0 %
Test CRC 43735D51
Copy CRC 43735D51
Accurately ripped (confidence 1) [ECF62BC6] (AR v1)
Copy OK
Track 2
Filename C:\EAC Rips\Kali Z. Fasteau & Kidd Jordan - People of the Ninth (2006) [FLAC]\02 Rising Winds.wav
Pre-gap length 0:00:01.98
Peak level 89.6 %
Extraction speed 1.2 X
Track quality 99.9 %
Test CRC D24BD904
Copy CRC D24BD904
Accurately ripped (confidence 1) [7CD91976] (AR v1)
Copy OK
Track 3
Filename C:\EAC Rips\Kali Z. Fasteau & Kidd Jordan - People of the Ninth (2006) [FLAC]\03 Right of Return.wav
Pre-gap length 0:00:01.98
Peak level 92.3 %
Extraction speed 1.6 X
Track quality 100.0 %
Test CRC 6989CB85
Copy CRC 6989CB85
Accurately ripped (confidence 1) [C1407807] (AR v1)
Copy OK
Track 4
Filename C:\EAC Rips\Kali Z. Fasteau & Kidd Jordan - People of the Ninth (2006) [FLAC]\04 What Once Was.wav
Pre-gap length 0:00:01.98
Peak level 94.5 %
Extraction speed 1.7 X
Track quality 100.0 %
Test CRC EFAE895A
Copy CRC EFAE895A
Accurately ripped (confidence 1) [AFB3D9FF] (AR v1)
Copy OK
Track 5
Filename C:\EAC Rips\Kali Z. Fasteau & Kidd Jordan - People of the Ninth (2006) [FLAC]\05 Whales' Advice.wav
Pre-gap length 0:00:01.98
Peak level 99.1 %
Extraction speed 1.6 X
Track quality 99.9 %
Test CRC 16A506B1
Copy CRC 16A506B1
Accurately ripped (confidence 1) [5B227A51] (AR v1)
Copy OK
Track 6
Filename C:\EAC Rips\Kali Z. Fasteau & Kidd Jordan - People of the Ninth (2006) [FLAC]\06 Rescue Denied.wav
Pre-gap length 0:00:01.98
Peak level 95.6 %
Extraction speed 2.0 X
Track quality 100.0 %
Test CRC 8DCF2618
Copy CRC 8DCF2618
Accurately ripped (confidence 1) [164B534F] (AR v1)
Copy OK
Track 7
Filename C:\EAC Rips\Kali Z. Fasteau & Kidd Jordan - People of the Ninth (2006) [FLAC]\07 Professor Jordan's Favorite Horse.wav
Pre-gap length 0:00:01.98
Peak level 100.0 %
Extraction speed 2.0 X
Track quality 100.0 %
Test CRC 7F47A21C
Copy CRC 7F47A21C
Accurately ripped (confidence 1) [F6B72809] (AR v1)
Copy OK
Track 8
Filename C:\EAC Rips\Kali Z. Fasteau & Kidd Jordan - People of the Ninth (2006) [FLAC]\08 Mr. October.wav
Pre-gap length 0:00:01.98
Peak level 85.2 %
Extraction speed 2.2 X
Track quality 100.0 %
Test CRC 1293DF9F
Copy CRC 1293DF9F
Accurately ripped (confidence 1) [75127A5B] (AR v1)
Copy OK
Track 9
Filename C:\EAC Rips\Kali Z. Fasteau & Kidd Jordan - People of the Ninth (2006) [FLAC]\09 Concentration Dome.wav
Pre-gap length 0:00:01.98
Peak level 86.1 %
Extraction speed 1.9 X
Track quality 99.9 %
Test CRC 3986D1E1
Copy CRC 3986D1E1
Accurately ripped (confidence 1) [39BB050F] (AR v1)
Copy OK
Track 10
Filename C:\EAC Rips\Kali Z. Fasteau & Kidd Jordan - People of the Ninth (2006) [FLAC]\10 Diaspora,Oil & Water.wav
Pre-gap length 0:00:01.98
Peak level 100.0 %
Extraction speed 2.3 X
Track quality 100.0 %
Test CRC E011AFE3
Copy CRC E011AFE3
Accurately ripped (confidence 1) [F5EDF395] (AR v1)
Copy OK
Track 11
Filename C:\EAC Rips\Kali Z. Fasteau & Kidd Jordan - People of the Ninth (2006) [FLAC]\11 The Dynamite Question.wav
Pre-gap length 0:00:01.98
Peak level 81.4 %
Extraction speed 1.5 X
Track quality 100.0 %
Test CRC 2E74562F
Copy CRC 2E74562F
Accurately ripped (confidence 1) [E0371B9F] (AR v1)
Copy OK
Track 12
Filename C:\EAC Rips\Kali Z. Fasteau & Kidd Jordan - People of the Ninth (2006) [FLAC]\12 Solace (Trancendance IV).wav
Pre-gap length 0:00:01.98
Peak level 94.3 %
Extraction speed 2.3 X
Track quality 100.0 %
Test CRC 9EE41115
Copy CRC 9EE41115
Accurately ripped (confidence 1) [8B8083BD] (AR v1)
Copy OK
Track 13
Filename C:\EAC Rips\Kali Z. Fasteau & Kidd Jordan - People of the Ninth (2006) [FLAC]\13 untitled.wav
Pre-gap length 0:00:01.98
Peak level 94.7 %
Extraction speed 2.3 X
Track quality 100.0 %
Test CRC DCE45F14
Copy CRC DCE45F14
Accurately ripped (confidence 1) [5870B5B8] (AR v1)
Copy OK
All tracks accurately ripped
No errors occurred
End of status report
---- CUETools DB Plugin V2.1.3
[CTDB TOCID: .FfjFyxiTQPG9gS0MOlZyOhsH_w-] disk not present in database, Submit result: database access error: The operation has timed out
==== Log checksum 7F6D4ABD685CF9C2F726AD0189922A6B63C4FE0CF5275559B4143301C8EF1828 ====
 
Содержание индексной карты (.CUE)
REM GENRE Jazz
REM DATE 2006
REM DISCID AD0DBE0D
REM COMMENT "ExactAudioCopy v1.0b3"
PERFORMER "Kali Z. Fasteau & Kidd Jordan"
TITLE "People of the Ninth"
FILE "01 Levees, Lies & Lives.wav" WAVE
TRACK 01 AUDIO
TITLE "Levees, Lies & Lives"
PERFORMER "Kali Z. Fasteau & Kidd Jordan"
INDEX 01 00:00:00
TRACK 02 AUDIO
TITLE "Rising Winds"
PERFORMER "Kali Z. Fasteau & Kidd Jordan"
INDEX 00 06:32:09
FILE "02 Rising Winds.wav" WAVE
INDEX 01 00:00:00
TRACK 03 AUDIO
TITLE "Right of Return"
PERFORMER "Kali Z. Fasteau & Kidd Jordan"
INDEX 00 04:13:72
FILE "03 Right of Return.wav" WAVE
INDEX 01 00:00:00
TRACK 04 AUDIO
TITLE "What Once Was"
PERFORMER "Kali Z. Fasteau & Kidd Jordan"
INDEX 00 05:08:14
FILE "04 What Once Was.wav" WAVE
INDEX 01 00:00:00
TRACK 05 AUDIO
TITLE "Whales' Advice"
PERFORMER "Kali Z. Fasteau & Kidd Jordan"
INDEX 00 05:37:37
FILE "05 Whales' Advice.wav" WAVE
INDEX 01 00:00:00
TRACK 06 AUDIO
TITLE "Rescue Denied"
PERFORMER "Kali Z. Fasteau & Kidd Jordan"
INDEX 00 04:07:00
FILE "06 Rescue Denied.wav" WAVE
INDEX 01 00:00:00
TRACK 07 AUDIO
TITLE "Professor Jordan's Favorite Horse"
PERFORMER "Kali Z. Fasteau & Kidd Jordan"
INDEX 00 06:01:24
FILE "07 Professor Jordan's Favorite Horse.wav" WAVE
INDEX 01 00:00:00
TRACK 08 AUDIO
TITLE "Mr. October"
PERFORMER "Kali Z. Fasteau & Kidd Jordan"
INDEX 00 03:58:13
FILE "08 Mr. October.wav" WAVE
INDEX 01 00:00:00
TRACK 09 AUDIO
TITLE "Concentration Dome"
PERFORMER "Kali Z. Fasteau & Kidd Jordan"
INDEX 00 06:58:11
FILE "09 Concentration Dome.wav" WAVE
INDEX 01 00:00:00
TRACK 10 AUDIO
TITLE "Diaspora/Oil & Water"
PERFORMER "Kali Z. Fasteau & Kidd Jordan"
INDEX 00 03:58:28
FILE "10 Diaspora,Oil & Water.wav" WAVE
INDEX 01 00:00:00
TRACK 11 AUDIO
TITLE "The Dynamite Question"
PERFORMER "Kali Z. Fasteau & Kidd Jordan"
INDEX 00 04:37:62
FILE "11 The Dynamite Question.wav" WAVE
INDEX 01 00:00:00
TRACK 12 AUDIO
TITLE "Solace (Trancendance IV)"
PERFORMER "Kali Z. Fasteau & Kidd Jordan"
INDEX 00 00:49:53
FILE "12 Solace (Trancendance IV).wav" WAVE
INDEX 01 00:00:00
TRACK 13 AUDIO
TITLE "untitled"
PERFORMER "Kali Z. Fasteau & Kidd Jordan"
INDEX 00 03:19:52
FILE "13 untitled.wav" WAVE
INDEX 01 00:00:00
Доп. информация:
Recording Date: September 25, 2005
 
Об альбоме (сборнике)
One of the great benefits of obscurity is the celebration of discovery. Throughout his career, saxophonist/teacher Kidd Jordan has been respected and hired by peers including Cecil Taylor, Ornette Coleman and Ellis Marsalis, but only since the late '90s has the septuagenarian begun to garner prolific recording opportunities and jazz festival invites.
Multi-instrumentalist Kali Z. Fasteau is the latest to share the time-tested and distinctive playing of Jordan. For People of the Ninth: New Orleans and the Hurricane 2005, the intent is unmistakable and the focus startling. The emotions of being displaced from his Louisiana home (Jordan resided in the Ninth Ward, pre-Katrina) can be heard from the opening quote of "Now's The Time on the first selection, "Levees, Lies and Lives. Using the Charlie Parker theme as a springboard to a plaintive cry, Jordan's multi-faceted message is a revealing one. It's up to the listener to decide between it being a statement on the evacuation or the larger failure of government to prepare for what would become the worst disaster on American soil.
Fasteau and Jordan complement one another sonically with Jordan's inspiring range on tenor and Fasteau's ceaseless creativity on piano (inside and out), cello, soprano sax, nai flute and aquasonic (waterphone), with drummer Michael TA Thompson (who also plays balafon) adding propulsive undercurrents. Respectful of the past while conscious of the future, Jordan's sound is at once earthy and deep and intensely biting. Titles such as "Rising Winds, "What Once Was, "Rescue Denied and "Oil and Water make this one of the most moving and personal post-Katrina music tributes made thus far.
 
Состав
Kali Z. Fasteau: soprano sax, cello, piano, nai flute, aquasonic;
Kidd Jordan: tenor sax;
Michael T.A. Thompson: drums, balafon.
По всем вопросам пишите личное сообщение пользователю M0p94ok.
14:03
124
Нет комментариев. Ваш будет первым!