Вы используете незарегистрированную версию компонента "Вкладки"!

Поиск

(Free Jazz, Avant-Garde Jazz) [CD] Frank Wright Quartet - Blues for Albert Ayler - 1974 (2012), FLAC (tracks+.cue), lossless

(Free Jazz, Avant-Garde Jazz) [CD] Frank Wright Quartet - Blues for Albert Ayler - 1974 (2012), FLAC (tracks+.cue), lossless
Битрейт аудио:
lossless
Треклист:
Frank Wright Quartet - Blues for Albert Ayler
Жанр: Free Jazz, Avant-Garde Jazz
Носитель: CD
Страна-производитель диска (релиза): США
Год издания: 2012
Издатель (лейбл): ESP Disk
Номер по каталогу: ESP 4068
Аудиокодек: FLAC (*.flac)
Тип рипа: tracks+.cue
Битрейт аудио: lossless
Продолжительность: 74:36
Источник (релизер): kye21lp
Наличие сканов в содержимом раздачи: нет
Треклист:
01. Part 1 (12:50)
02. Part 2 (5:10)
03. Part 3 (14:38)
04. Part 4 (12:13)
05. Part 5 (23:58)
06. Part 6 (5:47)
Состав:
Frank Wright - tenor saxophone, flute, vocals
James Blood Ulmer - guitar
Benny Wilson - bass
Rashied Ali - drums
Recorded live at Ali's Alley, New York on July 17, 1974.
 
Лог создания рипа
Exact Audio Copy V1.1 from 23. June 2015
EAC extraction logfile from 3. January 2018, 0:03
Frank Wright Quartet / Blues for Albert Ayler
Used drive : ASUS DRW-24B3ST Adapter: 1 ID: 0
Read mode : Secure
Utilize accurate stream : Yes
Defeat audio cache : Yes
Make use of C2 pointers : No
Read offset correction : 6
Overread into Lead-In and Lead-Out : No
Fill up missing offset samples with silence : Yes
Delete leading and trailing silent blocks : No
Null samples used in CRC calculations : Yes
Used interface : Native Win32 interface for Win NT & 2000
Gap handling : Appended to previous track
Used output format : User Defined Encoder
Selected bitrate : 1024 kBit/s
Quality : High
Add ID3 tag : No
Command line compressor : C:\Program Files (x86)\Exact Audio Copy\Flac\flac.exe
Additional command line options : -8 -V -T "ARTIST=%artist%" -T "TITLE=%title%" -T "ALBUM=%albumtitle%" -T "DATE=%year%" -T "TRACKNUMBER=%tracknr%" -T "GENRE=%genre%" -T "PERFORMER=%albuminterpret%" -T "COMPOSER=%composer%" %haslyrics%--tag-from-file=LYRICS="%lyricsfile%"%haslyrics% -T "ALBUMARTIST=%albumartist%" -T "DISCNUMBER=%cdnumber%" -T "TOTALDISCS=%totalcds%" -T "TOTALTRACKS=%numtracks%" -T "COMMENT=%comment%" %source% -o %dest%
TOC of the extracted CD
Track | Start | Length | Start sector | End sector
---------------------------------------------------------
1 | 0:00.00 | 12:49.48 | 0 | 57722
2 | 12:49.48 | 5:10.03 | 57723 | 80975
3 | 17:59.51 | 14:37.74 | 80976 | 146824
4 | 32:37.50 | 12:12.40 | 146825 | 201764
5 | 44:50.15 | 23:57.72 | 201765 | 309611
6 | 68:48.12 | 5:47.07 | 309612 | 335643
Track 1
Filename D:\EACrips\01 Part 1.wav
Pre-gap length 0:00:02.00
Peak level 67.5 %
Extraction speed 4.7 X
Track quality 100.0 %
Test CRC 5D06F7EB
Copy CRC 5D06F7EB
Accurately ripped (confidence 1) [FD801C9D] (AR v2)
Copy OK
Track 2
Filename D:\EACrips\02 Part 2.wav
Peak level 55.0 %
Extraction speed 5.2 X
Track quality 100.0 %
Test CRC DD36851D
Copy CRC DD36851D
Accurately ripped (confidence 1) [5B4FDAD1] (AR v2)
Copy OK
Track 3
Filename D:\EACrips\03 Part 3.wav
Peak level 67.5 %
Extraction speed 6.4 X
Track quality 100.0 %
Test CRC C2EAB3D8
Copy CRC C2EAB3D8
Accurately ripped (confidence 1) [395D7DCB] (AR v2)
Copy OK
Track 4
Filename D:\EACrips\04 Part 4.wav
Peak level 22.7 %
Extraction speed 7.3 X
Track quality 100.0 %
Test CRC 15A4522E
Copy CRC 15A4522E
Accurately ripped (confidence 1) [BDAC3883] (AR v2)
Copy OK
Track 5
Filename D:\EACrips\05 Part 5.wav
Peak level 67.5 %
Extraction speed 8.5 X
Track quality 100.0 %
Test CRC 7016276C
Copy CRC 7016276C
Accurately ripped (confidence 1) [31283C70] (AR v2)
Copy OK
Track 6
Filename D:\EACrips\06 Part 6.wav
Peak level 67.5 %
Extraction speed 8.5 X
Track quality 100.0 %
Test CRC BF30F597
Copy CRC BF30F597
Cannot be verified as accurate (confidence 1) [2306C732], AccurateRip returned [96B07177] (AR v2)
Copy OK
5 track(s) accurately ripped
1 track(s) could not be verified as accurate
Some tracks could not be verified as accurate
No errors occurred
End of status report
---- CUETools DB Plugin V2.1.6
[CTDB TOCID: 3a7xYrcFlvGcL.X5gzkpxMzcGks-] found
Submit result: already submitted
Track | CTDB Status
1 | (3/3) Accurately ripped
2 | (3/3) Accurately ripped
3 | (3/3) Accurately ripped
4 | (3/3) Accurately ripped
5 | (3/3) Accurately ripped
6 | (3/3) Accurately ripped
==== Log checksum DC9D60A78942A7394E0392FF0C1F2F1B2ED0F91D74BA51DD9D6E5F2C0B66F2D4 ====
 
Содержание индексной карты (.CUE)
REM GENRE Jazz
REM DATE 1974
REM DISCID 4E117B06
REM COMMENT "ExactAudioCopy v1.1"
PERFORMER "Frank Wright"
TITLE "Blues for Albert Ayler"
FILE "01 - Part 1.wav" WAVE
TRACK 01 AUDIO
TITLE "Part 1"
PERFORMER "Frank Wright"
INDEX 01 00:00:00
FILE "02 - Part 2.wav" WAVE
TRACK 02 AUDIO
TITLE "Part 2"
PERFORMER "Frank Wright"
INDEX 01 00:00:00
FILE "03 - Part 3.wav" WAVE
TRACK 03 AUDIO
TITLE "Part 3"
PERFORMER "Frank Wright"
INDEX 01 00:00:00
FILE "04 - Part 4.wav" WAVE
TRACK 04 AUDIO
TITLE "Part 4"
PERFORMER "Frank Wright"
INDEX 01 00:00:00
FILE "05 - Part 5.wav" WAVE
TRACK 05 AUDIO
TITLE "Part 5"
PERFORMER "Frank Wright"
INDEX 01 00:00:00
FILE "06 - Part 6.wav" WAVE
TRACK 06 AUDIO
TITLE "Part 6"
PERFORMER "Frank Wright"
INDEX 01 00:00:00
 
Отчет CUETools
[CUETools log; Date: 14.12.2018 18:34:19; Version: 2.1.6]
[CTDB TOCID: 3a7xYrcFlvGcL.X5gzkpxMzcGks-] found.
Track | CTDB Status
1 | (3/3) Accurately ripped
2 | (3/3) Accurately ripped
3 | (3/3) Accurately ripped
4 | (3/3) Accurately ripped
5 | (3/3) Accurately ripped
6 | (3/3) Accurately ripped
[AccurateRip ID: 00114801-005e0510-4e117b06] found.
Track [ CRC | V2 ] Status
01 [9f56c30f|fd801c9d] (0+1/2) Accurately ripped
02 [ab7fd038|5b4fdad1] (0+1/2) Accurately ripped
03 [b94cfff9|395d7dcb] (0+1/2) Accurately ripped
04 [ec71a737|bdac3883] (0+1/2) Accurately ripped
05 [7f33e726|31283c70] (0+1/2) Accurately ripped
06 [68a530be|2306c732] (0+0/1) No match
Track Peak [ CRC32 ] [W/O NULL] [ LOG ]
-- 67,5 [715841C3] [99952434]
01 67,5 [5D06F7EB] [4D9C052F] CRC32
02 55,0 [DD36851D] [5344B287] CRC32
03 67,5 [C2EAB3D8] [F3EE6FA4] CRC32
04 22,7 [15A4522E] [1392B21B] CRC32
05 67,5 [7016276C] [11CED0B0] CRC32
06 67,5 [BF30F597] [BE0BE4E1] CRC32
 
AllMusic Review by Sean Westergaard
No, this isn't a long-lost ESP session despite the label. It's a tape from Rashied Ali's club made in 1974 celebrating both a visit by Frank Wright from his base in Paris, and a dedication to the memory of Albert Ayler. Backing Wright was James Blood Ulmer on guitar, Benny Wilson on bass, and Rashied Ali on drums and they were assembled just for the occasion. It's a blowing session for sure, with everyone getting plenty of solo space, but it's not an all-out firestorm. There's a theme that they return to throughout and Wright comes from a jump blues background and even his outside playing is informed by that. Perhaps the most interesting aspect of this recording is hearing how advanced Ulmer's harmolodic playing is at this stage, well before he recorded with Ornette Coleman. He even takes a very unorthodox wah-wah solo at one point. It's certainly a long way from his work with Big John Patton for Blue Note just a few years prior. This is a great, historic session captured in surprisingly excellent sound that we're lucky to have.
Any questions - support@pro-jazz.com. Есть вопросы - support@pro-jazz.com
13:45
230
Нет комментариев. Ваш будет первым!