Вы используете незарегистрированную версию компонента "Вкладки"!

Поиск

(Free Jazz, Avant-Garde Jazz) Bauer - Gumpert - Petrowsky - Sommer - Zentralquartett - 2001, FLAC (tracks+.cue) lossless

Треклист:
Bauer - Gumpert - Petrowsky - Sommer - Zentralquartett
Жанр: Free Jazz, Avant-Garde Jazz
Страна-производитель диска: Switzerland
Год издания диска: 2001
Издатель (лейбл): Intakt Records
Номер по каталогу: CD 069
Страна: Switzerland
Аудио кодек: FLAC (*.flac)
Тип рипа: tracks+.cue
Битрейт аудио: lossless
Продолжительность: 50:50
Источник (релизер): собственный рип с оригинального диска.
Наличие сканов в содержимом раздачи: да
Треклист:
01. Synopsis (07.17)
02. Advent (06.51)
03. Hit piece no. 8 (05.20)
04. Sitz- und Aufsteh-Stück (05.21)
05. Der alte Göttinger (05.47)
06. Ohne illusion (05.09)
07. Fischlandlied (06.32)
08. Hymnus 3 (06.24)
09. Das Angenehme dieser Welt... (01.52)
 
Лог создания рипа
Exact Audio Copy V0.99 prebeta 5 from 4. May 2009
EAC extraction logfile from 4. December 2010, 23:08
Bauer - Gumpert - Petrowsky - Sommer / Zentralquartett
Used drive : TSSTcorpCDDVDW SH-S222A Adapter: 1 ID: 0
Read mode : Secure
Utilize accurate stream : Yes
Defeat audio cache : Yes
Make use of C2 pointers : No
Read offset correction : 6
Overread into Lead-In and Lead-Out : No
Fill up missing offset samples with silence : Yes
Delete leading and trailing silent blocks : No
Null samples used in CRC calculations : Yes
Used interface : Native Win32 interface for Win NT & 2000
Gap handling : Appended to previous track
Used output format : User Defined Encoder
Selected bitrate : 768 kBit/s
Quality : High
Add ID3 tag : No
Command line compressor : C:\tool\Audio\Exact Audio Copy\FLAC\FLAC.EXE
Additional command line options : -V -8 -T "ARTIST=%a" -T "TITLE=%t" -T "ALBUM=%g" -T "TRACKNUMBER=%n" -T "GENRE=%m" %s
TOC of the extracted CD
Track | Start | Length | Start sector | End sector
---------------------------------------------------------
1 | 0:00.32 | 7:18.38 | 32 | 32919
2 | 7:18.70 | 6:53.25 | 32920 | 63919
3 | 14:12.20 | 5:23.25 | 63920 | 88169
4 | 19:35.45 | 5:24.30 | 88170 | 112499
5 | 25:00.00 | 5:49.32 | 112500 | 138706
6 | 30:49.32 | 5:11.63 | 138707 | 162094
7 | 36:01.20 | 6:34.07 | 162095 | 191651
8 | 42:35.27 | 6:26.10 | 191652 | 220611
9 | 49:01.37 | 1:52.28 | 220612 | 229039
Track 1
Filename C:\! RUTRACKER\ru up\Zentralquartett - Zentralquartett\01 - Synopsis.wav
Pre-gap length 0:00:02.32
Peak level 98.6 %
Track quality 100.0 %
Test CRC D1774709
Copy CRC D1774709
Accurately ripped (confidence 3) [269BA8AB]
Copy OK
Track 2
Filename C:\! RUTRACKER\ru up\Zentralquartett - Zentralquartett\02 - Advent.wav
Pre-gap length 0:00:01.38
Peak level 81.9 %
Track quality 100.0 %
Test CRC 32DFFE32
Copy CRC 32DFFE32
Accurately ripped (confidence 3) [EEEFEA56]
Copy OK
Track 3
Filename C:\! RUTRACKER\ru up\Zentralquartett - Zentralquartett\03 - Hit Piece No. 8.wav
Pre-gap length 0:00:02.13
Peak level 100.0 %
Track quality 100.0 %
Test CRC 3040AC02
Copy CRC 3040AC02
Accurately ripped (confidence 3) [AC15D1C8]
Copy OK
Track 4
Filename C:\! RUTRACKER\ru up\Zentralquartett - Zentralquartett\04 - Sitz- und Aufsteh-Stück.wav
Pre-gap length 0:00:03.63
Peak level 87.9 %
Track quality 99.9 %
Test CRC 01AAD6D6
Copy CRC 01AAD6D6
Accurately ripped (confidence 3) [1B12EE2C]
Copy OK
Track 5
Filename C:\! RUTRACKER\ru up\Zentralquartett - Zentralquartett\05 - Der alte Göttinger.wav
Pre-gap length 0:00:03.60
Peak level 100.0 %
Track quality 100.0 %
Test CRC EFE4163C
Copy CRC EFE4163C
Accurately ripped (confidence 3) [002FC5C7]
Copy OK
Track 6
Filename C:\! RUTRACKER\ru up\Zentralquartett - Zentralquartett\06 - Ohne Illusion.wav
Pre-gap length 0:00:02.00
Peak level 95.0 %
Track quality 100.0 %
Test CRC 20414351
Copy CRC 20414351
Accurately ripped (confidence 3) [D64B396E]
Copy OK
Track 7
Filename C:\! RUTRACKER\ru up\Zentralquartett - Zentralquartett\07 - Fischlandlied.wav
Pre-gap length 0:00:02.30
Peak level 100.0 %
Track quality 100.0 %
Test CRC 83B170E1
Copy CRC 83B170E1
Accurately ripped (confidence 3) [0D014944]
Copy OK
Track 8
Filename C:\! RUTRACKER\ru up\Zentralquartett - Zentralquartett\08 - Hymnus 3.wav
Pre-gap length 0:00:01.70
Peak level 100.0 %
Track quality 100.0 %
Test CRC FF7A8D9F
Copy CRC FF7A8D9F
Accurately ripped (confidence 3) [7A6B369A]
Copy OK
Track 9
Filename C:\! RUTRACKER\ru up\Zentralquartett - Zentralquartett\09 - Das Angenehme dieser Welt....wav
Pre-gap length 0:00:02.42
Peak level 91.3 %
Track quality 100.0 %
Test CRC CF208FA4
Copy CRC CF208FA4
Cannot be verified as accurate (confidence 2) [B307D625], AccurateRip returned [16BED625]
Copy OK
8 track(s) accurately ripped
1 track(s) could not be verified as accurate
Some tracks could not be verified as accurate
No errors occurred
End of status report
 
Содержание индексной карты (.CUE)
REM GENRE "Free Jazz"
REM DATE 1990
REM DISCID 730BED09
REM COMMENT "ExactAudioCopy v0.99pb5"
PERFORMER "Bauer - Gumpert - Petrowsky - Sommer"
TITLE "Zentralquartett"
FILE "01 - Synopsis.wav" WAVE
TRACK 01 AUDIO
TITLE "Synopsis"
PERFORMER "Bauer - Gumpert - Petrowsky - Sommer"
PREGAP 00:00:32
INDEX 01 00:00:00
TRACK 02 AUDIO
TITLE "Advent"
PERFORMER "Bauer - Gumpert - Petrowsky - Sommer"
INDEX 00 07:17:00
FILE "02 - Advent.wav" WAVE
INDEX 01 00:00:00
TRACK 03 AUDIO
TITLE "Hit Piece No. 8"
PERFORMER "Bauer - Gumpert - Petrowsky - Sommer"
INDEX 00 06:51:12
FILE "03 - Hit Piece No. 8.wav" WAVE
INDEX 01 00:00:00
TRACK 04 AUDIO
TITLE "Sitz- und Aufsteh-Stück"
PERFORMER "Bauer - Gumpert - Petrowsky - Sommer"
INDEX 00 05:19:37
FILE "04 - Sitz- und Aufsteh-Stück.wav" WAVE
INDEX 01 00:00:00
TRACK 05 AUDIO
TITLE "Der alte Göttinger"
PERFORMER "Bauer - Gumpert - Petrowsky - Sommer"
INDEX 00 05:20:45
FILE "05 - Der alte Göttinger.wav" WAVE
INDEX 01 00:00:00
TRACK 06 AUDIO
TITLE "Ohne Illusion"
PERFORMER "Bauer - Gumpert - Petrowsky - Sommer"
INDEX 00 05:47:32
FILE "06 - Ohne Illusion.wav" WAVE
INDEX 01 00:00:00
TRACK 07 AUDIO
TITLE "Fischlandlied"
PERFORMER "Bauer - Gumpert - Petrowsky - Sommer"
INDEX 00 05:09:33
FILE "07 - Fischlandlied.wav" WAVE
INDEX 01 00:00:00
TRACK 08 AUDIO
TITLE "Hymnus 3"
PERFORMER "Bauer - Gumpert - Petrowsky - Sommer"
INDEX 00 06:32:12
FILE "08 - Hymnus 3.wav" WAVE
INDEX 01 00:00:00
TRACK 09 AUDIO
TITLE "Das Angenehme dieser Welt..."
PERFORMER "Bauer - Gumpert - Petrowsky - Sommer"
INDEX 00 06:23:43
FILE "09 - Das Angenehme dieser Welt....wav" WAVE
INDEX 01 00:00:00
Доп. информация:
Recorded on 3-6 May 1990 by Deutsche Schallplatten GmbH, Berlin and previously released 1990; this release on Intakt in 2001.
Cover art by Peter Frey.
 
Об альбоме (сборнике)
About the Zentralquartet recording made in 1990 – it's music played in a highly charged period. The old GDR no longer existed, and the unification didn't yet. And also, even if the music of the Zentralquartet did not depict a mirror image of sensitivity, these recordings manifest it clearly: breakneck speed and introspection, exhaling and reflection. Produced and recorded in 1990, this CD hardly turned up in East Germany and in any shop anywhere. At that time, everything was thrown into chaos. Having disappeared from the scene, this album was considered an insider's secret. In order to make this CD available again, Intakt Records researched and consequently obtained the rights to this recording, which has the significance of a musical manifesto.
 
Состав
Conrad Bauer - Trombone
Ulrich Gumpert - Piano
Ernst-Ludwig Petrowsky - Alto Saxophone, Clarinet, Flute
Günter Sommer - Drums, Percussion
По всем вопросам пишите личное сообщение пользователю M0p94ok.
06:15
184
Нет комментариев. Ваш будет первым!