Вы используете незарегистрированную версию компонента "Вкладки"!

Поиск

(Free Jazz / Avant-Garde) Irene Schweizer & Gunter Sommer - Irene Schweizer & Gunter Sommer (1987) {Intakt Records, Intakt CD 007} - 1996, FLAC (tracks+.cue) lossless

(Free Jazz / Avant-Garde) Irene Schweizer & Gunter Sommer - Irene Schweizer & Gunter Sommer (1987) {Intakt Records, Intakt CD 007} - 1996, FLAC (tracks+.cue) lossless
Издатель (лейбл):
Треклист:
Irene Schweizer & Gunter Sommer - Irene Schweizer & Gunter Sommer
Жанр: Free Jazz / Avant-Garde
Страна-производитель диска: Switzerland
Год издания диска: 1996
Издатель (лейбл): Intakt Records
Номер по каталогу: Intakt CD 007
Аудио кодек: FLAC (*.flac)
Тип рипа: tracks+.cue
Битрейт аудио: lossless
Продолжительность: 00:42:42
Источник (релизер): mishka1981
Наличие сканов в содержимом раздачи: да
Треклист:
1. Dresdener Schlittenfahrt
2. Verspielte Zeiten
3. Monte Marenzo
4. Auf Dem Feldweg Zur Feldstrasse
5. Erinnerungen
6. Schweizersommer: Der Regen Fliesst Von Oben Nach Unten
Recorded Live February, 1987 at the Rote Fabrik Zurich.
Personnel:
Irene Schweizer - piano
Gunter "Baby" Sommer - drums
 
Лог создания рипа (EAC Log)
Exact Audio Copy V1.0 beta 1 from 15. November 2010
EAC extraction logfile from 6. July 2011, 22:40
Irene Schweizer / Irene Schweizer and Gunter Sommer
Used drive : Optiarc DVD RW AD-7710H Adapter: 1 ID: 0
Read mode : Secure
Utilize accurate stream : Yes
Defeat audio cache : Yes
Make use of C2 pointers : No
Read offset correction : 48
Overread into Lead-In and Lead-Out : No
Fill up missing offset samples with silence : Yes
Delete leading and trailing silent blocks : No
Null samples used in CRC calculations : Yes
Used interface : Native Win32 interface for Win NT & 2000
Gap handling : Appended to previous track
Used output format : User Defined Encoder
Selected bitrate : 896 kBit/s
Quality : High
Add ID3 tag : No
Command line compressor : C:\Program Files\Exact Audio Copy\FLAC\FLAC.EXE
Additional command line options : -8 -V -T "ARTIST=%a" -T "TITLE=%t" -T "ALBUM=%g" -T "DATE=%y" -T "TRACKNUMBER=%n" -T "GENRE=%m" -T "COMMENT=%e" %j--picture="%i"%j %s -o %d
TOC of the extracted CD
Track | Start | Length | Start sector | End sector
---------------------------------------------------------
1 | 0:00.00 | 2:18.62 | 0 | 10411
2 | 2:18.62 | 7:23.00 | 10412 | 43636
3 | 9:41.62 | 4:53.00 | 43637 | 65611
4 | 14:34.62 | 3:27.00 | 65612 | 81136
5 | 18:01.62 | 5:27.00 | 81137 | 105661
6 | 23:28.62 | 19:14.13 | 105662 | 192224
Track 1
Filename C:\MY RIPS\01 - Dresdener Schlittenfahrt.wav
Pre-gap length 0:00:02.00
Peak level 88.3 %
Extraction speed 1.8 X
Track quality 99.9 %
Test CRC C6A9EF7F
Copy CRC C6A9EF7F
Cannot be verified as accurate (confidence 1) [352540B1], AccurateRip returned [B765CAA4]
Copy OK
Track 2
Filename C:\MY RIPS\02 - Verspielte Zeiten.wav
Peak level 82.5 %
Extraction speed 3.2 X
Track quality 100.0 %
Test CRC 5D069E62
Copy CRC 5D069E62
Cannot be verified as accurate (confidence 1) [4A06CEBA], AccurateRip returned [321B669C]
Copy OK
Track 3
Filename C:\MY RIPS\03 - Monte Marenzo.wav
Pre-gap length 0:00:01.62
Peak level 85.4 %
Extraction speed 3.6 X
Track quality 100.0 %
Test CRC 26BC806D
Copy CRC 26BC806D
Cannot be verified as accurate (confidence 1) [352C3DF4], AccurateRip returned [BA43B1CF]
Copy OK
Track 4
Filename C:\MY RIPS\04 - Auf Dem Feldweg Zur Feldstrasse.wav
Pre-gap length 0:00:01.62
Peak level 100.0 %
Extraction speed 3.6 X
Track quality 100.0 %
Test CRC 6D038E82
Copy CRC 6D038E82
Cannot be verified as accurate (confidence 1) [212F87FD], AccurateRip returned [1E4AC06A]
Copy OK
Track 5
Filename C:\MY RIPS\05 - Erinnerungen.wav
Pre-gap length 0:00:01.62
Peak level 100.0 %
Extraction speed 4.1 X
Track quality 100.0 %
Test CRC 3D8F063E
Copy CRC 3D8F063E
Cannot be verified as accurate (confidence 1) [B9BCBCE9], AccurateRip returned [A24C98BB]
Copy OK
Track 6
Filename C:\MY RIPS\06 - Der Regen Fliesst Von Oben Nach Unten.wav
Pre-gap length 0:00:03.62
Peak level 100.0 %
Extraction speed 5.1 X
Track quality 100.0 %
Test CRC 9619D178
Copy CRC 9619D178
Cannot be verified as accurate (confidence 1) [1F335E83], AccurateRip returned [71F1A888]
Copy OK
No tracks could be verified as accurate
You may have a different pressing from the one(s) in the database
No errors occurred
End of status report
==== Log checksum FFDD84E52BB122B9429589827EB3A98D824FF4B148B1417C0C7B0908FF0D8DD5 ====
 
Содержание индексной карты (.CUE)
REM GENRE Avantgarde
REM DATE 1987
REM DISCID 3E0A0306
REM COMMENT "ExactAudioCopy v1.0b1"
PERFORMER "Irene Schweizer"
TITLE "Irene Schweizer and Gunter Sommer"
FILE "01 - Dresdener Schlittenfahrt.wav" WAVE
TRACK 01 AUDIO
TITLE "Dresdener Schlittenfahrt"
PERFORMER "Irene Schweizer"
INDEX 01 00:00:00
FILE "02 - Verspielte Zeiten.wav" WAVE
TRACK 02 AUDIO
TITLE "Verspielte Zeiten"
PERFORMER "Irene Schweizer"
INDEX 01 00:00:00
TRACK 03 AUDIO
TITLE "Monte Marenzo"
PERFORMER "Irene Schweizer"
INDEX 00 07:21:13
FILE "03 - Monte Marenzo.wav" WAVE
INDEX 01 00:00:00
TRACK 04 AUDIO
TITLE "Auf Dem Feldweg Zur Feldstrasse"
PERFORMER "Irene Schweizer"
INDEX 00 04:51:13
FILE "04 - Auf Dem Feldweg Zur Feldstrasse.wav" WAVE
INDEX 01 00:00:00
TRACK 05 AUDIO
TITLE "Erinnerungen"
PERFORMER "Irene Schweizer"
INDEX 00 03:25:13
FILE "05 - Erinnerungen.wav" WAVE
INDEX 01 00:00:00
TRACK 06 AUDIO
TITLE "Der Regen Fliesst Von Oben Nach Unten"
PERFORMER "Irene Schweizer"
INDEX 00 05:23:13
FILE "06 - Der Regen Fliesst Von Oben Nach Unten.wav" WAVE
INDEX 01 00:00:00
Any questions -> support@pro-jazz.com. По всем вопросам пишите -> support@pro-jazz.com
14:29
164
Нет комментариев. Ваш будет первым!