Вы используете незарегистрированную версию компонента "Вкладки"!

Поиск

(free jazz, avant-garde, Intakt Records) [cd] Irene Schweizer & Andrew Cyrille 1989, FLAC (tracks+.cue), lossless

(free jazz, avant-garde, Intakt Records) [cd] Irene Schweizer & Andrew Cyrille 1989, FLAC (tracks+.cue), lossless
Издатель (лейбл):
Треклист:
(free jazz, avant-garde, Intakt Records) [cd] Irene Schweizer & Andrew Cyrille 2012, FLAC (tracks+.cue), lossless


Irene Schweizer & Andrew Cyrille 2012

Жанр:free jazz, avant-garde
Год выпуска: 1989
Издатель (лейбл):2012, Intakt Records
Формат: FLAC (tracks+.cue)
Битрейт аудио: lossless
Продолжительность 44:43
Источник: what.cd
Irene Schweizer: Piano
Andrew Cyrille: Drums

tracks

01. Smashing Napf (6:53)
02. Soft Inside (3:23)
03. From Stäfa to Willisau Via Music (13:01)
04. As Time Goes On (4:08)
05. Fiction of the 13th Kind (12:41)
06. A Monkish Encore (4:37)


 
.log
EAC extraction logfile from 23. January 2008, 21:14 for CD
Irene Schweitzer & Andrew Cyrille / Irene Schweitzer & Andrew Cyrille
Used drive : PIONEER DVD-RW DVR-110D Adapter: 1 ID: 1
Read mode : Secure with NO C2, accurate stream, disable cache
Read offset correction : 48
Overread into Lead-In and Lead-Out : No
Used output format : C:\Program Files\FLAC\flac.exe (User Defined Encoder)
128 kBit/s
Additional command line options : -5 -V -T "ARTIST=%a" -T "TITLE=%t" -T "ALBUM=%g" -T "DATE=%y" -T "TRACKNUMBER=%n" -T "GENRE=%m" -T "COMMENT=EAC Flac 1.1.2 -5" %s
Other options :
Fill up missing offset samples with silence : Yes
Delete leading and trailing silent blocks : No
Installed external ASPI interface
Track 1
Filename G:\New Audio\Irene Schweitzer and Andrew Cyrille (1988) [FLAC]\01 - Smashing Napf.wav
Pre-gap length 0:00:02.00
Peak level 77.7 %
Track quality 100.0 %
Test CRC 71AACA0E
Copy CRC 71AACA0E
Copy OK
Track 2
Filename G:\New Audio\Irene Schweitzer and Andrew Cyrille (1988) [FLAC]\02 - Soft Inside.wav
Pre-gap length 0:00:01.82
Peak level 56.3 %
Track quality 100.0 %
Test CRC 9C891AD9
Copy CRC 9C891AD9
Copy OK
Track 3
Filename G:\New Audio\Irene Schweitzer and Andrew Cyrille (1988) [FLAC]\03 - From Stafa to Wilisau via music.wav
Peak level 88.8 %
Track quality 99.9 %
Test CRC 35618CD1
Copy CRC 35618CD1
Copy OK
Track 4
Filename G:\New Audio\Irene Schweitzer and Andrew Cyrille (1988) [FLAC]\04 - As Time Goes On.wav
Pre-gap length 0:00:03.49
Peak level 71.8 %
Track quality 100.0 %
Test CRC 372C5F59
Copy CRC 372C5F59
Copy OK
Track 5
Filename G:\New Audio\Irene Schweitzer and Andrew Cyrille (1988) [FLAC]\05 - Fiction of the 13th Kind.wav
Pre-gap length 0:00:02.82
Peak level 83.9 %
Track quality 100.0 %
Test CRC B13470C9
Copy CRC B13470C9
Copy OK
Track 6
Filename G:\New Audio\Irene Schweitzer and Andrew Cyrille (1988) [FLAC]\06 - A Monkish Encore.wav
Pre-gap length 0:00:04.49
Peak level 72.5 %
Track quality 100.0 %
Test CRC 515C831B
Copy CRC 515C831B
Copy OK
No errors occured
End of status report
 
.cue
PERFORMER "Irene Schweitzer & Andrew Cyrille"
TITLE "Irene Schweitzer & Andrew Cyrille"
FILE "01 - Smashing Napf.wav" WAVE
TRACK 01 AUDIO
TITLE "Smashing Napf"
PERFORMER "Irene Schweitzer & Andrew Cyrille"
INDEX 01 00:00:00
TRACK 02 AUDIO
TITLE "Soft Inside"
PERFORMER "Irene Schweitzer & Andrew Cyrille"
INDEX 00 06:52:00
FILE "02 - Soft Inside.wav" WAVE
INDEX 01 00:00:00
FILE "03 - From Stafa to Wilisau via music.wav" WAVE
TRACK 03 AUDIO
TITLE "From Stafa to Wilisau via music"
PERFORMER "Irene Schweitzer & Andrew Cyrille"
INDEX 01 00:00:00
TRACK 04 AUDIO
TITLE "As Time Goes On"
PERFORMER "Irene Schweitzer & Andrew Cyrille"
INDEX 00 12:58:13
FILE "04 - As Time Goes On.wav" WAVE
INDEX 01 00:00:00
TRACK 05 AUDIO
TITLE "Fiction of the 13th Kind"
PERFORMER "Irene Schweitzer & Andrew Cyrille"
INDEX 00 04:05:38
FILE "05 - Fiction of the 13th Kind.wav" WAVE
INDEX 01 00:00:00
TRACK 06 AUDIO
TITLE "A Monkish Encore"
PERFORMER "Irene Schweitzer & Andrew Cyrille"
INDEX 00 12:37:13
FILE "06 - A Monkish Encore.wav" WAVE
INDEX 01 00:00:00
 
.accurip
[CUETools log; Date: 21/11/15 23:22:43; Version: 2.1.4]
Offset applied: -11
[CTDB TOCID: 3oSQ2paxaGayVabj6qi.UC0onPY-] found.
Track | CTDB Status
1 | (1/1) Accurately ripped
2 | (1/1) Accurately ripped
3 | (1/1) Accurately ripped
4 | (1/1) Accurately ripped
5 | (1/1) Accurately ripped
6 | (1/1) Accurately ripped
[AccurateRip ID: 000a7ea9-0038f1e5-3a0a7e06] found.
Track [ CRC | V2 ] Status
01 [23810af8|3f616597] (0+0/2) No match
02 [1b3bd407|ce7296dd] (0+0/2) No match
03 [b6864d1b|0764b084] (0+0/2) No match
04 [a21f9e75|b1a74b95] (0+0/2) No match
05 [2a79e081|7471facd] (0+0/2) No match
06 [db2329ac|71864384] (0+0/2) No match
Track Peak [ CRC32 ] [W/O NULL] [ LOG ]
-- 88.8 [138FD075] [72989386]
01 77.7 [E4F9C7EF] [DFBE896C] CRC32 : offset 11
02 56.3 [C41C8295] [BE607B56] CRC32 : offset 11
03 88.8 [CD8F63E6] [C60E6C95] CRC32 : offset 11
04 71.8 [AFCC4C17] [8B8165FE] CRC32 : offset 11
05 83.9 [6BC30DB5] [D8435E82] CRC32 : offset 11
06 72.5 [C5527725] [A6440303] CRC32 : offset 11

другие релизы
По всем вопросам пишите личное сообщение пользователю M0p94ok.
16:58
276
Нет комментариев. Ваш будет первым!