Вы используете незарегистрированную версию компонента "Вкладки"!

Поиск

(Free Jazz, Avant-garde, Funk) Kondo Toshinori & IMA - 337 (32-8H-103) - 1987, FLAC (image+.cue), lossless

(Free Jazz, Avant-garde, Funk) Kondo Toshinori & IMA - 337 (32-8H-103) - 1987, FLAC (image+.cue), lossless
Треклист:
Kondo Toshinori & IMA / 337 (32-8H-103)
Жанр: Free Jazz, Avant-garde, Funk
Страна-производитель диска: Japan
Год издания диска: 1987
Издатель (лейбл): Epic/Sony Inc.
Номер по каталогу: 32-8H-103
Страна: Japan
Аудиокодек: FLAC (*.flac)
Тип рипа: image+.cue
Битрейт аудио: lossless
Продолжительность: 34:11
Источник (релизер): Rip с фирменного CD из собственной коллекции.
Наличие сканов в содержимом раздачи: да
Треклист:
1. 337 5:01
2. Flowers 6:24
3. Check Point Charlie 5:01
4. Kyosyu 4:28
5. Nagame 4:43
6. Kizuna 2:13
7. Nagame (Another Version) 3:23
8. Kyosyu (Another Version) 2:59
 
Лог создания рипа
Exact Audio Copy V0.99 prebeta 5 from 4. May 2009
Отчёт EAC об извлечении, выполненном 19. января 2012, 19:25
Toshinori Kondo / 337 (32-8H-103)
Дисковод: MATSHITABD-MLT UJ-210S Adapter: 0 ID: 0
Режим чтения : Достоверность
Использование точного потока : Да
Отключение кэша аудио : Да
Использование указателей C2 : Нет
Коррекция смещения при чтении : 102
Способность читать области Lead-in и Lead-out : Нет
Заполнение пропущенных сэмплов тишиной : Да
Удаление блоков с тишиной в начале и конце : Нет
При вычислениях CRC использовались нулевые сэмплы : Да
Интерфейс : Встроенный Win32-интерфейс для Win NT/2000
Выходной формат : Внутренние WAV-операции
Формат сэмплов : 44.100 Гц; 16 бит; стерео
TOC извлечённого CD
Трек | Старт | Длительность | Начальный сектор | Конечный сектор
---------------------------------------------------------------------
1 | 0:00.00 | 5:00.42 | 0 | 22541
2 | 5:00.42 | 6:23.73 | 22542 | 51339
3 | 11:24.40 | 5:01.07 | 51340 | 73921
4 | 16:25.47 | 4:27.70 | 73922 | 94016
5 | 20:53.42 | 4:43.08 | 94017 | 115249
6 | 25:36.50 | 2:12.65 | 115250 | 125214
7 | 27:49.40 | 3:22.65 | 125215 | 140429
8 | 31:12.30 | 2:59.35 | 140430 | 153889
Характеристики диапазона извлечения и сообщения об ошибках
Выбранный диапазон
Имя файла I:\temp\Toshinori Kondo - 337 (32-8H-103)\Toshinori Kondo - 337 (32-8H-103).wav
Пиковый уровень 100.0 %
Качество диапазона 100.0 %
CRC теста 0F923B52
CRC копии 0F923B52
Копирование... OK
Ошибок не произошло
AccurateRip: сводка
Трек 1 нет в базе данных
Трек 2 нет в базе данных
Трек 3 нет в базе данных
Трек 4 нет в базе данных
Трек 5 нет в базе данных
Трек 6 нет в базе данных
Трек 7 нет в базе данных
Трек 8 нет в базе данных
Ни одного трека нет в базе AccurateRip
Конец отчёта
 
Об исполнителе (группе)
Kondo Toshinori & IMA :
Toshinori Kondo : Trumpet, Voice
Reck(Friction) : Electric Guitar
Haruo Togashi : Keyboards
Taizo Sakai : Electric Guitar
Hideo Yamaki : Drums,Percussion
Any questions -> support@pro-jazz.com. По всем вопросам пишите -> support@pro-jazz.com
21:37
161
Нет комментариев. Ваш будет первым!