Вы используете незарегистрированную версию компонента "Вкладки"!

Поиск

(Free Jazz, Avant-Garde, Free Improvisation) Rova Saxophone Quartet - Beat Kennel - 1987, APE (image+.cue), lossless

Треклист:
Rova Saxophone Quartet - Beat Kennel
Жанр: Free Jazz, Avant-Garde, Free Improvisation
Год выпуска диска: 1987
Производитель диска: Black Saint, Italy (120 126-2)
Аудио кодек: APE
Тип рипа: image+.cue
Битрейт аудио: lossless
Продолжительность: 48:17
Треклист:
El Amor En Los Tiempos De La Finca 7:50
The Aggregate 10:05
Sportspeak 5:07
Composition 30-78 5:39
What Was Lost Regained 10:53
Доп. информация:
Saxophone [Alto] - Andrew Voigt, Jon Raskin
Saxophone [Baritone] - Jon Raskin
Saxophone [Soprano] - Andrew Voigt, Bruce Ackley
Saxophone [Tenor] - Larry Ochs
Recorded April 13, 14 and 15, 1987 at Barigozzi Studio, Milano
Собственный рип с копии оригинального диска
 
EAClog
Exact Audio Copy V0.99 prebeta 5 from 4. May 2009
EAC extraction logfile from 7. September 2010, 0:07
Rova / Beat Kennel
Used drive : Optiarc DVD RW AD-5200S Adapter: 2 ID: 1
Read mode : Secure
Utilize accurate stream : Yes
Defeat audio cache : Yes
Make use of C2 pointers : No
Read offset correction : 48
Overread into Lead-In and Lead-Out : No
Fill up missing offset samples with silence : Yes
Delete leading and trailing silent blocks : No
Null samples used in CRC calculations : Yes
Used interface : Native Win32 interface for Win NT & 2000
Used output format : Internal WAV Routines
Sample format : 44.100 Hz; 16 Bit; Stereo
Use compression offset : 0
TOC of the extracted CD
Track | Start | Length | Start sector | End sector
---------------------------------------------------------
1 | 0:00.33 | 7:54.25 | 33 | 35607
2 | 7:54.58 | 10:08.05 | 35608 | 81212
3 | 18:02.63 | 5:09.47 | 81213 | 104434
4 | 23:12.35 | 5:42.28 | 104435 | 130112
5 | 28:54.63 | 10:52.52 | 130113 | 179064
Range status and errors
Selected range
Filename F:\FOS\MY_MUSIC\ROVA\Rova - Beat Kennel\Rova - Beat Kennel.wav
Peak level 99.2 %
Range quality 99.9 %
Test CRC 18012AA5
Copy CRC 18012AA5
Copy OK
No errors occurred
AccurateRip summary
Track 1 cannot be verified as accurate (confidence 1) [50CE50AE], AccurateRip returned [2D356B39]
Track 2 cannot be verified as accurate (confidence 1) [AF3ECCDE], AccurateRip returned [DC09F23B]
Track 3 cannot be verified as accurate (confidence 1) [9792B66C], AccurateRip returned [9F2E39AA]
Track 4 cannot be verified as accurate (confidence 1) [0F0DE28F], AccurateRip returned [017A6509]
Track 5 cannot be verified as accurate (confidence 1) [7EB0ACA4], AccurateRip returned [98D21D60]
No tracks could be verified as accurate
You may have a different pressing from the one(s) in the database
End of status report
Any questions -> support@pro-jazz.com. По всем вопросам пишите -> support@pro-jazz.com
03:11
142
Нет комментариев. Ваш будет первым!