Вы используете незарегистрированную версию компонента "Вкладки"!

Поиск

(Free Jazz, Avant-Garde, Free Improvisation) Evan Parker - 50th Birthday Concert (2CD) - 1997, APE (image+.cue), lossless

(Free Jazz, Avant-Garde, Free Improvisation) Evan Parker - 50th Birthday Concert (2CD) - 1997, APE (image+.cue), lossless
Треклист:
Evan Parker - 50th Birthday Concert (2CD)
Жанр: Free Jazz, Avant-Garde, Free Improvisation
Год выпуска диска: 1997
Производитель диска: Leo Records UK
Аудио кодек: APE
Тип рипа: image+.cue
Битрейт аудио: lossless
Трэклист:
Disc: 1
1. Hero of Nine Fingers - Evan Parker, VonSchlippenbach, A
2. Bowed Stiffly and Went Free - Evan Parker, VonSchlippenbach, A
Disc: 2
1. In Exultation - Evan Parker, Guy, Barry
2. The Not Backwards, as Indoubt - Evan Parker, Guy, Barry
3. Echoing Border Zones - Evan Parker, Guy, Barry
Доп. информация:
Evan Parker, soprano and tenor saxophones; Alex von Schlippenbach, piano; Paul Lovens, percussion.
Hero of nine fingers (24.31), Bowed stiffly and went free (19.22).
Evan Parker, soprano and tenor saxophones; Barry Guy, bass; Paul Lytton, percussion.
In exultation (20.37), Not backwards, as in doubt (09.25), The echoing border zones (09.24)
All recorded at Dingwalls, London on 10 April 1994 at a concert organised by the LMC.
 
Отчёт EAC (disc 1)
Exact Audio Copy V0.99 prebeta 4 from 23. January 2008
Отчёт EAC об извлечении, выполненном 4. апреля 2009, 19:32
Evan Parker / 50th Birthday Concert (disc 1)
Дисковод: TSSTcorpCDDVDW SH-S203D Adapter: 3 ID: 0
Режим чтения : Достоверность
Использование точного потока : Да
Отключение кэша аудио : Да
Использование указателей C2 : Нет
Коррекция смещения при чтении : 6
Способность читать области Lead-in и Lead-out : Нет
Заполнение пропущенных сэмплов тишиной : Да
Удаление блоков с тишиной в начале и конце : Нет
При вычислениях CRC использовались нулевые сэмплы : Да
Интерфейс : Установленный внешний ASPI-интерфейс
Выходной формат : Внутренние WAV-операции
Формат сэмплов : 44.100 Гц; 16 бит; стерео
TOC извлечённого CD
Трек | Старт | Длительность | Начальный сектор | Конечный сектор
---------------------------------------------------------------------
1 | 0:00.00 | 24:31.25 | 0 | 110349
2 | 24:31.25 | 19:22.50 | 110350 | 197549
Характеристики диапазона извлечения и сообщения об ошибках
Выбранный диапазон
Имя файла F:\My Music\TMP\Disс_1\Evan Parker - 50th Birthday Concert (disc 1).wav
Пиковый уровень 99.5 %
Качество диапазона 100.0 %
CRC копии AA71CD4F
Копирование... OK
Ошибок не произошло
Конец отчёта
 
Отчёт EAC (disc 2)
Exact Audio Copy V0.99 prebeta 4 from 23. January 2008
Отчёт EAC об извлечении, выполненном 4. апреля 2009, 19:22
Evan Parker / 50th Birthday Concert (disc 2)
Дисковод: TSSTcorpCDDVDW SH-S203D Adapter: 3 ID: 0
Режим чтения : Достоверность
Использование точного потока : Да
Отключение кэша аудио : Да
Использование указателей C2 : Нет
Коррекция смещения при чтении : 6
Способность читать области Lead-in и Lead-out : Нет
Заполнение пропущенных сэмплов тишиной : Да
Удаление блоков с тишиной в начале и конце : Нет
При вычислениях CRC использовались нулевые сэмплы : Да
Интерфейс : Установленный внешний ASPI-интерфейс
Выходной формат : Внутренние WAV-операции
Формат сэмплов : 44.100 Гц; 16 бит; стерео
TOC извлечённого CD
Трек | Старт | Длительность | Начальный сектор | Конечный сектор
---------------------------------------------------------------------
1 | 0:00.00 | 20:38.00 | 0 | 92849
2 | 20:38.00 | 9:25.67 | 92850 | 135291
3 | 30:03.67 | 9:24.08 | 135292 | 177599
Характеристики диапазона извлечения и сообщения об ошибках
Выбранный диапазон
Имя файла F:\My Music\TMP\Disc_2\Evan Parker - 50th Birthday Concert (disc 2).wav
Пиковый уровень 99.5 %
Качество диапазона 100.0 %
CRC копии 66AA1F48
Копирование... OK
Ошибок не произошло
Конец отчёта
По всем вопросам пишите личное сообщение пользователю M0p94ok.
09:42
122
Нет комментариев. Ваш будет первым!