Вы используете незарегистрированную версию компонента "Вкладки"!

Поиск

(Free Jazz, Avant-Garde, Free Improvisation) Crispell Marilyn (with Barry Guy and Gerry Hemingway) (Four CD Set) - 1990, 1993, 1994, 1995 APE (image+.cue) lossless

(Free Jazz, Avant-Garde, Free Improvisation) Crispell Marilyn (with Barry Guy and Gerry Hemingway) (Four CD Set) - 1990, 1993, 1994, 1995 APE (image+.cue) lossless
Треклист:
Crispell Marilyn (with Barry Guy and Gerry Hemingway) (Four CD Set) - 1990, 1993, 1994, 1995
Marilyn Crispell - Live In San Francisco - 1990
Crispell, Marilyn - Highlights from the Summer of 1992 American Tour - 1993
Marilyn Crispell, Reggie Workman, Doug James - GAIA - 1994
Marilyn Crispell, Barry Guy, Gerry Hemingway - Cascades - 1995
Жанр: Free Jazz, Avant-Garde, Free Improvisation
Страна: U.S.A.
Аудио кодек: APE (*.ape)
Тип рипа: image+.cue
Битрейт аудио: lossless
Источник (релизер): Собственные рипы с оригинальных CD
Наличие сканов в содержимом раздачи: да (Спасибо Einstein@ за помощь со сканами дисков)
 
Marilyn Crispell - Live In San Francisco (1990)
Страна-производитель диска: U.S.A.
Номер по каталогу: CD-633
Год издания диска: 1990
Издатель (лейбл): Music&Art
Треклист:
1 Penumbra Crispell, Marilyn 12:02
2 Zipporah Crispell, Marilyn 5:52
3 When I Fall in Love Heyman, Edward/Young, Victor 6:41
4 Ruby, My Dear Monk, Thelonious 6:39
5 Misconception Crispell, Marilyn 8:28
6 Tromos Crispell, Marilyn 5:43
7 Dear Lord Coltrane, John 6:19
8 Encore Crispell, Marilyn 1:30
9 Composition No. 136 Braxton, Anthony 10:10
10 Wha's Nine? Workman, Reggie 6:20
Продолжительность: 70'16''
 
Лог создания рипа
Exact Audio Copy V0.99 prebeta 5 from 4. May 2009
EAC extraction logfile from 3. February 2011, 23:43
Marilyn Crispell / Live In San Francisco
Used drive : Optiarc DVD RW AD-5200S Adapter: 2 ID: 1
Read mode : Secure
Utilize accurate stream : Yes
Defeat audio cache : Yes
Make use of C2 pointers : No
Read offset correction : 48
Overread into Lead-In and Lead-Out : No
Fill up missing offset samples with silence : Yes
Delete leading and trailing silent blocks : No
Null samples used in CRC calculations : Yes
Used interface : Native Win32 interface for Win NT & 2000
Used output format : Internal WAV Routines
Sample format : 44.100 Hz; 16 Bit; Stereo
TOC of the extracted CD
Track | Start | Length | Start sector | End sector
---------------------------------------------------------
1 | 0:00.00 | 12:06.30 | 0 | 54479
2 | 12:06.30 | 5:55.00 | 54480 | 81104
3 | 18:01.30 | 6:44.70 | 81105 | 111474
4 | 24:46.25 | 6:41.65 | 111475 | 141614
5 | 31:28.15 | 8:31.50 | 141615 | 179989
6 | 39:59.65 | 5:46.40 | 179990 | 205979
7 | 45:46.30 | 6:23.25 | 205980 | 234729
8 | 52:09.55 | 1:25.07 | 234730 | 241111
9 | 53:34.62 | 10:09.53 | 241112 | 286839
10 | 63:44.40 | 6:20.55 | 286840 | 315394
Range status and errors
Selected range
Filename F:\FOS\MY_MUSIC\Marilyn Crispell\Marilyn Crispell - Live In San Francisco\Marilyn Crispell - Live In San Francisco.wav
Peak level 91.0 %
Range quality 99.9 %
Test CRC 32010407
Copy CRC 32010407
Copy OK
No errors occurred
AccurateRip summary
Track 1 accurately ripped (confidence 1) [8C0507C3]
Track 2 accurately ripped (confidence 1) [36A8A774]
Track 3 accurately ripped (confidence 1) [9C551419]
Track 4 accurately ripped (confidence 1) [287E1594]
Track 5 accurately ripped (confidence 1) [7DD10414]
Track 6 accurately ripped (confidence 1) [03CBB788]
Track 7 accurately ripped (confidence 1) [143C990B]
Track 8 accurately ripped (confidence 1) [1E20F39D]
Track 9 accurately ripped (confidence 1) [809B8C5E]
Track 10 accurately ripped (confidence 1) [92BA6965]
All tracks accurately ripped
End of status report
 
Содержание индексной карты (.CUE)
REM GENRE Jazz
REM DATE 1990
REM DISCID 89106D0A
REM COMMENT "ExactAudioCopy v0.99pb5"
PERFORMER "Marilyn Crispell"
TITLE "Live In San Francisco"
FILE "Marilyn Crispell - Live In San Francisco.wav" WAVE
TRACK 01 AUDIO
TITLE "Penumbra"
PERFORMER "Marilyn Crispell"
INDEX 01 00:00:00
TRACK 02 AUDIO
TITLE "Zipporah"
PERFORMER "Marilyn Crispell"
INDEX 00 12:02:70
INDEX 01 12:06:30
TRACK 03 AUDIO
TITLE "When I Fall In Love"
PERFORMER "Marilyn Crispell"
INDEX 00 17:58:13
INDEX 01 18:01:30
TRACK 04 AUDIO
TITLE "Ruby My Dear"
PERFORMER "Marilyn Crispell"
INDEX 00 24:43:18
INDEX 01 24:46:25
TRACK 05 AUDIO
TITLE "Misconception"
PERFORMER "Marilyn Crispell"
INDEX 00 31:25:13
INDEX 01 31:28:15
TRACK 06 AUDIO
TITLE "Tromos"
PERFORMER "Marilyn Crispell"
INDEX 00 39:56:63
INDEX 01 39:59:65
TRACK 07 AUDIO
TITLE "Dear Lord"
PERFORMER "Marilyn Crispell"
INDEX 00 45:43:28
INDEX 01 45:46:30
TRACK 08 AUDIO
TITLE "Encore"
PERFORMER "Marilyn Crispell"
INDEX 00 52:06:35
INDEX 01 52:09:55
TRACK 09 AUDIO
TITLE "Composition 136"
PERFORMER "Marilyn Crispell"
INDEX 00 53:31:32
INDEX 01 53:34:62
TRACK 10 AUDIO
TITLE "Wha's Nine?"
PERFORMER "Marilyn Crispell"
INDEX 00 63:41:50
INDEX 01 63:44:40
 
Состав
CRISPELL, Marilyn (piano)
Доп. информация:
Recorded at New Langton Arts, October 20, 1989
 
Marilyn Crispell Trio - On Tour (1993)
Номер по каталогу: CD-758
Страна-производитель диска: U.S.A.
Год издания диска: 1990
Издатель (лейбл): Music&Art
Треклист:
1. Suite for Trio
2. Solstice
3. Not Wanting
4. Commodore
5. Mouvements Changeables
6. Rain
7. Angels
Продолжительность: 70'34''
 
Лог создания рипа
Exact Audio Copy V0.99 prebeta 5 from 4. May 2009
EAC extraction logfile from 4. February 2011, 0:23
Crispell, Marilyn / Highlights from the Summer of 1992 American Tour
Used drive : Optiarc DVD RW AD-5200S Adapter: 2 ID: 1
Read mode : Secure
Utilize accurate stream : Yes
Defeat audio cache : Yes
Make use of C2 pointers : No
Read offset correction : 48
Overread into Lead-In and Lead-Out : No
Fill up missing offset samples with silence : Yes
Delete leading and trailing silent blocks : No
Null samples used in CRC calculations : Yes
Used interface : Native Win32 interface for Win NT & 2000
Used output format : Internal WAV Routines
Sample format : 44.100 Hz; 16 Bit; Stereo
TOC of the extracted CD
Track | Start | Length | Start sector | End sector
---------------------------------------------------------
1 | 0:00.00 | 13:58.43 | 0 | 62892
2 | 13:58.43 | 11:24.57 | 62893 | 114249
3 | 25:23.25 | 7:56.35 | 114250 | 149984
4 | 33:19.60 | 12:21.48 | 149985 | 205607
5 | 45:41.33 | 7:39.12 | 205608 | 240044
6 | 53:20.45 | 6:07.18 | 240045 | 267587
7 | 59:27.63 | 11:12.12 | 267588 | 317999
Range status and errors
Selected range
Filename F:\FOS\MY_MUSIC\Marilyn Crispell\Crispell, Marilyn - Highlights from the Summer of 1992 American Tour\Crispell, Marilyn - Highlights from the Summer of 1992 American Tour.wav
Peak level 100.0 %
Range quality 100.0 %
Test CRC 887040F3
Copy CRC 887040F3
Copy OK
No errors occurred
AccurateRip summary
Track 1 accurately ripped (confidence 5) [239F5B6C]
Track 2 accurately ripped (confidence 5) [EE999899]
Track 3 accurately ripped (confidence 5) [539C3EAF]
Track 4 accurately ripped (confidence 5) [FACD79A6]
Track 5 accurately ripped (confidence 5) [84816A60]
Track 6 accurately ripped (confidence 5) [854646DE]
Track 7 accurately ripped (confidence 5) [81240F72]
All tracks accurately ripped
End of status report
 
Содержание индексной карты (.CUE)
REM GENRE Jazz
REM DATE 1992
REM DISCID 4C109007
REM COMMENT "ExactAudioCopy v0.99pb5"
PERFORMER "Crispell, Marilyn"
TITLE "Highlights from the Summer of 1992 American Tour"
FILE "Crispell, Marilyn - Highlights from the Summer of 1992 American Tour.wav" WAVE
TRACK 01 AUDIO
TITLE "Suite for Trio"
PERFORMER "Crispell, Marilyn"
INDEX 01 00:00:00
TRACK 02 AUDIO
TITLE "Solstice"
PERFORMER "Crispell, Marilyn"
INDEX 00 13:56:43
INDEX 01 13:58:43
TRACK 03 AUDIO
TITLE "Not Wanting"
PERFORMER "Crispell, Marilyn"
INDEX 00 25:18:40
INDEX 01 25:23:25
TRACK 04 AUDIO
TITLE "Commodore"
PERFORMER "Crispell, Marilyn"
INDEX 00 33:17:00
INDEX 01 33:19:60
TRACK 05 AUDIO
TITLE "Mouvements Changeables"
PERFORMER "Crispell, Marilyn"
INDEX 00 45:40:13
INDEX 01 45:41:33
TRACK 06 AUDIO
TITLE "Rain"
PERFORMER "Crispell, Marilyn"
INDEX 00 53:16:45
INDEX 01 53:20:45
TRACK 07 AUDIO
TITLE "Angels"
PERFORMER "Crispell, Marilyn"
INDEX 01 59:27:63
 
Состав
CRISPELL, Marilyn (piano)
WORKMAN, Reggie (bass)
HEMINWAY, Gerry (drums)
Доп. информация:
Highlights from the Summer of 1992 American Tour
 
Marilyn Crispell, Reggie Workman, Doug James - GAIA (1994)
Страна-производитель диска: U.K.
Номер по каталогу: CD LR 152
Год издания диска: 1994
Издатель (лейбл): Leo
Треклист:
1 (Untitled) 10:07
2 (Untitled) 8:46
3 (Untitled) 6:55
4 (Untitled) 5:08
5 (Untitled) 8:53
Продолжительность: 70'00''
 
Лог создания рипа
Exact Audio Copy V0.99 prebeta 5 from 4. May 2009
EAC extraction logfile from 3. February 2011, 22:59
Marilyn Crispell, Reggie Workman, Doug James / GAIA
Used drive : Optiarc DVD RW AD-5200S Adapter: 2 ID: 1
Read mode : Secure
Utilize accurate stream : Yes
Defeat audio cache : Yes
Make use of C2 pointers : No
Read offset correction : 48
Overread into Lead-In and Lead-Out : No
Fill up missing offset samples with silence : Yes
Delete leading and trailing silent blocks : No
Null samples used in CRC calculations : Yes
Used interface : Native Win32 interface for Win NT & 2000
Used output format : Internal WAV Routines
Sample format : 44.100 Hz; 16 Bit; Stereo
TOC of the extracted CD
Track | Start | Length | Start sector | End sector
---------------------------------------------------------
1 | 0:00.32 | 10:06.63 | 32 | 45544
2 | 10:07.20 | 8:45.55 | 45545 | 84974
3 | 18:53.00 | 6:55.17 | 84975 | 116116
4 | 25:48.17 | 5:08.08 | 116117 | 139224
5 | 30:56.25 | 8:53.27 | 139225 | 179226
Range status and errors
Selected range
Filename F:\FOS\MY_MUSIC\Marilyn Crispell\Marilyn Crispell, Reggie Workman, Doug James - GAIA\Marilyn Crispell, Reggie Workman, Doug James - GAIA.wav
Peak level 100.0 %
Range quality 100.0 %
Test CRC 2DD1B742
Copy CRC 2DD1B742
Copy OK
No errors occurred
AccurateRip summary
Track 1 cannot be verified as accurate (confidence 3) [F010E3A6], AccurateRip returned [CBCB7BA9]
Track 2 cannot be verified as accurate (confidence 3) [92BF5CAB], AccurateRip returned [F9FC0E69]
Track 3 cannot be verified as accurate (confidence 3) [D6D991DC], AccurateRip returned [94DD80C4]
Track 4 cannot be verified as accurate (confidence 3) [368708CC], AccurateRip returned [8431A7FA]
Track 5 cannot be verified as accurate (confidence 3) [B43A853B], AccurateRip returned [16094825]
No tracks could be verified as accurate
You may have a different pressing from the one(s) in the database
End of status report
 
Содержание индексной карты (.CUE)
REM GENRE "Free Improvisation"
REM DATE 1994
REM DISCID 3C095505
REM COMMENT "ExactAudioCopy v0.99pb5"
PERFORMER "Marilyn Crispell, Reggie Workman, Doug James"
TITLE "GAIA"
FILE "Marilyn Crispell, Reggie Workman, Doug James - GAIA.wav" WAVE
TRACK 01 AUDIO
TITLE "Gaia (part 1)"
PERFORMER "Marilyn Crispell, Reggie Workman, Doug James"
INDEX 00 00:00:00
INDEX 01 00:00:32
TRACK 02 AUDIO
TITLE "Gaia (part 2)"
PERFORMER "Marilyn Crispell, Reggie Workman, Doug James"
INDEX 00 10:05:40
INDEX 01 10:07:20
TRACK 03 AUDIO
TITLE "Gaia (part 3)"
PERFORMER "Marilyn Crispell, Reggie Workman, Doug James"
INDEX 00 18:50:47
INDEX 01 18:53:00
TRACK 04 AUDIO
TITLE "Gaia (part 4)"
PERFORMER "Marilyn Crispell, Reggie Workman, Doug James"
INDEX 01 25:48:17
TRACK 05 AUDIO
TITLE "Gaia (part 5)"
PERFORMER "Marilyn Crispell, Reggie Workman, Doug James"
INDEX 01 30:56:25
 
Состав
Marilyn Crispell (Percussion), Marilyn Crispell (Piano), Marilyn Crispell (Harp), Marilyn Crispell (Mixing), Doug James (Percussion), Doug James (Drums), Tom Mark (Engineer), Tom Mark (Mixing), Reggie Workman (Bass), Reggie Workman (Percussion), Reggie Workman (Drums), Leo Feigin (Producer)
Доп. информация:
Recorded on 15 March 1987 at Woodstock recording studio, Woodstock, NY.
 
Marilyn Crispell, Barry Guy, Gerry Hemingway - Cascades (1995)
Страна-производитель диска: U.S.A.
Номер по каталогу: CD 853
Год издания диска: 1995
Издатель (лейбл): Music&Art
Треклист:
1. Ricochet 15:40
2. Violet Sparks In Soft Air 6:40
3. Resonances 5:19
4. Cascades 28:48
5. Shadow Play 3:13
Продолжительность: 59'56''
 
Лог создания рипа
Exact Audio Copy V0.99 prebeta 5 from 4. May 2009
EAC extraction logfile from 3. February 2011, 22:28
Marilyn Crispell, Barry Guy and Gerry Hemingway / Cascades
Used drive : Optiarc DVD RW AD-5200S Adapter: 2 ID: 1
Read mode : Secure
Utilize accurate stream : Yes
Defeat audio cache : Yes
Make use of C2 pointers : No
Read offset correction : 48
Overread into Lead-In and Lead-Out : No
Fill up missing offset samples with silence : Yes
Delete leading and trailing silent blocks : No
Null samples used in CRC calculations : Yes
Used interface : Native Win32 interface for Win NT & 2000
Used output format : Internal WAV Routines
Sample format : 44.100 Hz; 16 Bit; Stereo
TOC of the extracted CD
Track | Start | Length | Start sector | End sector
---------------------------------------------------------
1 | 0:00.00 | 15:45.62 | 0 | 70936
2 | 15:45.62 | 6:43.00 | 70937 | 101161
3 | 22:28.62 | 5:22.00 | 101162 | 125311
4 | 27:50.62 | 28:53.00 | 125312 | 255286
5 | 56:43.62 | 3:13.13 | 255287 | 269774
Range status and errors
Selected range
Filename F:\FOS\MY_MUSIC\Marilyn Crispell\Marilyn Crispell, Barry Guy and Gerry Hemingway - Cascades\Marilyn Crispell, Barry Guy and Gerry Hemingway - Cascades - 1995.wav
Peak level 93.0 %
Range quality 100.0 %
Test CRC 997BB917
Copy CRC 997BB917
Copy OK
No errors occurred
AccurateRip summary
Track 1 accurately ripped (confidence 2) [0C8FE2A1]
Track 2 accurately ripped (confidence 2) [419ADB74]
Track 3 accurately ripped (confidence 2) [EA41A973]
Track 4 accurately ripped (confidence 2) [EC02DC69]
Track 5 accurately ripped (confidence 2) [F218E91F]
All tracks accurately ripped
End of status report
 
Содержание индексной карты (.CUE)
REM DATE 1995
REM DISCID 3B0E0D05
REM COMMENT "ExactAudioCopy v0.99pb5"
PERFORMER "Marilyn Crispell, Barry Guy and Gerry Hemingway"
TITLE "Cascades"
FILE "Marilyn Crispell, Barry Guy and Gerry Hemingway - Cascades - 1995.wav" WAVE
TRACK 01 AUDIO
TITLE "Ricochet"
PERFORMER "Marilyn Crispell, Barry Guy and Gerry Hemingway"
INDEX 01 00:00:00
TRACK 02 AUDIO
TITLE "Violet Sparks in Soft Air"
PERFORMER "Marilyn Crispell, Barry Guy and Gerry Hemingway"
INDEX 00 15:41:00
INDEX 01 15:45:62
TRACK 03 AUDIO
TITLE "Resonances"
PERFORMER "Marilyn Crispell, Barry Guy and Gerry Hemingway"
INDEX 00 22:26:00
INDEX 01 22:28:62
TRACK 04 AUDIO
TITLE "Cascades"
PERFORMER "Marilyn Crispell, Barry Guy and Gerry Hemingway"
INDEX 00 27:48:00
INDEX 01 27:50:62
TRACK 05 AUDIO
TITLE "Shadow Play"
PERFORMER "Marilyn Crispell, Barry Guy and Gerry Hemingway"
INDEX 00 56:39:00
INDEX 01 56:43:62
 
Состав
Bass - Barry Guy
Drums, Vibraphone, Gamelan - Gerry Hemingway
Engineer - Simon Garber
Engineer [Assistant] - Peter Courtemanche , Robert Kozinuk
Executive Producer - Frederick J. Maroth
Piano - Marilyn Crispell
Producer - Russ Summers
Доп. информация:
Recorded June, 26, 1993 at the Western Front Lodge, Vancouver, B.C., Canada during the du Maurier, Ltd. International Jazz Festival Vancouver
Cover Painting: "View at Nice" (1992), Mary Vernon
Any questions -> support@pro-jazz.com. По всем вопросам пишите -> support@pro-jazz.com
08:06
224
Нет комментариев. Ваш будет первым!