Поиск

(Free Jazz, Avant-Garde, Free Improvisation) [CD] William Parker / In Order To Survive (feat. Cooper Moore, Assif Tsahar, Rob Brown, Susie Ibarra) - Posium Pendasem {FMP CD 105, Germany} - 1999, FLAC (image+.cue), lossless

(Free Jazz, Avant-Garde, Free Improvisation) [CD] William Parker / In Order To Survive (feat. Cooper Moore, Assif Tsahar, Rob Brown, Susie Ibarra) - Posium Pendasem {FMP CD 105, Germany} - 1999, FLAC (image+.cue), lossless
Треклист:
William Parker / In Order To Survive (feat. Cooper Moore, Assif Tsahar, Rob Brown, Susie Ibarra) - Posium Pendasem
Жанр: Free Jazz, Avant-Garde, Free Improvisation
Носитель: CD
Страна-производитель диска (релиза): Germany
Год издания: 1999
Издатель (лейбл): FMP (Free Music Production)
Номер по каталогу: CD 105
Аудиокодек: FLAC (*.flac)
Тип рипа: image+.cue
Битрейт аудио: lossless
Продолжительность: 01:05:55
Источник (релизер): Torturegarden
Наличие сканов в содержимом раздачи: да
1. Posium Pendasem #9 - 1'34"
2. Posium Pendasem #7 - 50'51"
3. Another Angel Goes Home - 13'30"
Credits▼
Alto Saxophone, Flute – Rob Brown
Double Bass, Composed By, Lyrics By – William Parker
Drums – Susie Ibarra
Liner Notes – Peter Kowald
Liner Notes [Translation] – Isabel Seeberg, Paul Lytton
Photography By [Front] – Robert Herman
Photography By [Inside] – Dagmar Gebers
Piano – Cooper Moore
Producer, Layout [Booklet] – Jost Gebers
Recorded By – Holger Scheuermann, Jonas Bergler
Tenor Saxophone, Bass Clarinet – Assif Tsahar
Notes▼
Recorded live during the "30, Workshop Freie Musik" on April 9 & 11, 1998 at the Akademie Der Künste in Berlin.
 
Лог создания рипа (EAC Log)
Exact Audio Copy V0.99 prebeta 4 from 23. January 2008
Отчёт EAC об извлечении, выполненном 17. июня 2008, 12:36
William Parker/In Order To Survive / Posium Pendasem
Дисковод: Optiarc DVD RW AD-7170A Adapter: 0 ID: 1
Режим чтения : Достоверность
Использование точного потока : Да
Отключение кэша аудио : Да
Использование указателей C2 : Нет
Коррекция смещения при чтении : 48
Способность читать области Lead-in и Lead-out : Нет
Заполнение пропущенных сэмплов тишиной : Да
Удаление блоков с тишиной в начале и конце : Нет
При вычислениях CRC использовались нулевые сэмплы : Нет
Интерфейс : Встроенный Win32-интерфейс для Win NT/2000
Выходной формат : Пользовательский кодировщик
Выбранный битрейт : 768 kBit/s
Качество : Высокий
Добавление ID3-тэга : Нет
Утилита сжатия : C:\Program Files\Exact Audio Copy\FLAC\FLAC.EXE
Дополнительные параметры : -6 -V -T "ARTIST=%a" -T "TITLE=%t" -T "ALBUM=%g" -T "DATE=%y" -T "TRACKNUMBER=%n" -T "GENRE=%m" -T "COMMENT=%e" %s -o %d
TOC извлечённого CD
Трек | Старт | Длительность | Начальный сектор | Конечный сектор
---------------------------------------------------------------------
1 | 0:00.00 | 1:33.52 | 0 | 7026
2 | 1:33.52 | 50:51.20 | 7027 | 235871
3 | 52:24.72 | 13:29.70 | 235872 | 296616
Характеристики диапазона извлечения и сообщения об ошибках
Выбранный диапазон
Имя файла C:\Music\William Parker In Order To Survive - Posium Pendasem.wav
Пиковый уровень 93.1 %
Качество диапазона 99.9 %
CRC копии CC30831C
Копирование... OK
Ошибок не произошло
AccurateRip: сводка
Трек 1 нет в базе данных
Трек 2 нет в базе данных
Трек 3 нет в базе данных
Ни одного трека нет в базе AccurateRip
Конец отчёта
 
Содержание индексной карты (.CUE)
REM GENRE Jazz
REM DATE 1998
REM DISCID 1E0F7203
REM COMMENT "ExactAudioCopy v0.99pb4"
PERFORMER "William Parker/In Order To Survive"
TITLE "Posium Pendasem"
FILE "William Parker In Order To Survive - Posium Pendasem.flac" WAVE
TRACK 01 AUDIO
TITLE "Posium Pendasem # 9"
PERFORMER "William Parker/In Order To Survive"
INDEX 01 00:00:00
TRACK 02 AUDIO
TITLE "Posium Pendasem # 7"
PERFORMER "William Parker/In Order To Survive"
INDEX 01 01:33:52
TRACK 03 AUDIO
TITLE "Another Angel Goes Home"
PERFORMER "William Parker/In Order To Survive"
INDEX 01 52:24:72
 
Об альбоме (сборнике)
Allmusic:
Review by Steve Loewy
This version of William Parker's group, In Order to Survive, adds tenor saxophonist Assif Tsahar to the usual quartet of Parker, drummer Susie Ibarra, pianist Cooper Moore, and alto saxophonist Rob Brown. Recorded live at the "30. Workshop Freie Musik" in Berlin, the highlight is the 50-minute "Posium Pendasem #7," which lets the players stretch and develop ideas at length. The powerful two-saxophone front line packs a major wallop, and when they blow energetically in tandem, there is a fierce and unsettling groundswell that erupts. Moore continues to be one of the most underrated of the freestyle pianists, and he and Ibarra round out a remarkable rhythm section. While there is no new ground broken, this recording is a fine example of the creative intensity generated by a small conglomeration that continues to knock out some of the finest music of its kind.
 
Torturegarden
"Обратите внимание на продолжительность второй композиции, при этом учтите - она достаточно жесткая, и большую часть этого не иначе как марафона слушатель вынужден держаться в эмоциональном напряжении - впрочем, достаточно благоприятно воздействующем в результате. Как бы в компенсацию за труды наконец нам преподносится заключительный трек - Another Angel Goes Home - очень красивая и наполненная нежностью и тонкой красотой вещь, которая лично у меня надолго попала в разряд фаворитов, во многом благодаря восхитительной манере игры Купера Мура."
08:08
262
Нет комментариев. Ваш будет первым!