Поиск

(Free Jazz / Avant-Garde / Free Improvisation) [CD] Vinny Golia Quintet - Dante No Longer Repents {Music & Arts CD-992, USA} - 1997, FLAC (image+.cue), lossless

(Free Jazz / Avant-Garde / Free Improvisation) [CD] Vinny Golia Quintet - Dante No Longer Repents {Music & Arts CD-992, USA} - 1997, FLAC (image+.cue), lossless
Треклист:
Vinny Golia Quintet / Dante No Longer Repents
Жанр: Free Jazz / Avant-Garde / Free Improvisation
Носитель: CD
Страна-производитель диска (релиза): USA
Год издания: 1997
Издатель (лейбл): Music & Arts
Номер по каталогу: CD-992
Аудиокодек: FLAC (*.flac)
Тип рипа: image+.cue
Битрейт аудио: lossless
Продолжительность: 01:06:29
Источник (релизер): ivoronen
Наличие сканов в содержимом раздачи: да
Vinny Golia - sopranino, soprano & baritone saxophones, piccolo, Bb & bass clarinets
Rob Blakeslee - trumpet, flugelhorn & cornet
Tad Weed - piano
Michael Bisio - bass
Billy Mintz - drums & percussion
1. Hat of Anger (for John Candy) 12:10
2. Inside the Rail 14:31
3. Liaisons in Cairo 12:07
4. Cents of Wonder 17:50
5. Endo Crededo 9:49
Recorded by Doug Haire 4/27/96 at Jack Straw Studios Productions, Seattle, WA
Mastered by Myles Boisen at Headless Buddha Labs
 
Лог создания рипа (EAC)
Exact Audio Copy V0.99 prebeta 4 from 23. January 2008
EAC extraction logfile from 23. September 2009, 21:12
Vinny Golia / Dante No Longer Repents
Used drive : TSSTcorpCD/DVDW SH-S182M Adapter: 2 ID: 0
Read mode : Secure
Utilize accurate stream : Yes
Defeat audio cache : Yes
Make use of C2 pointers : No
Read offset correction : 6
Overread into Lead-In and Lead-Out : No
Fill up missing offset samples with silence : Yes
Delete leading and trailing silent blocks : No
Null samples used in CRC calculations : Yes
Used interface : Installed external ASPI interface
Used output format : User Defined Encoder
Selected bitrate : 1024 kBit/s
Quality : High
Add ID3 tag : No
Command line compressor : C:\Program Files\FLAC\flac.exe
Additional command line options : -6 -V -T "ARTIST=%a" -T "TITLE=%t" -T "ALBUM=%g" -T "DATE=%y" -T "TRACKNUMBER=%n" -T "GENRE=%m" -T "COMMENT=EAC FLAC -6" %s
TOC of the extracted CD
Track | Start | Length | Start sector | End sector
---------------------------------------------------------
1 | 0:00.00 | 12:10.49 | 0 | 54798
2 | 12:10.49 | 14:31.05 | 54799 | 120128
3 | 26:41.54 | 12:07.54 | 120129 | 174707
4 | 38:49.33 | 17:50.54 | 174708 | 255011
5 | 56:40.12 | 9:49.20 | 255012 | 299206
Range status and errors
Selected range
Filename C:\Documents and Settings\Igor\My Documents\My Music\eac\Vinny Golia - Dante No Longer Repents.wav
Peak level 98.8 %
Range quality 99.9 %
Test CRC 87C62712
Copy CRC 87C62712
Copy OK
No errors occurred
AccurateRip summary
Track 1 not present in database
Track 2 not present in database
Track 3 not present in database
Track 4 not present in database
Track 5 not present in database
None of the tracks are present in the AccurateRip database
End of status report
 
Содержание индексной карты (.CUE)
REM GENRE "Music & Arts CD-992"
REM DATE 1997
REM DISCID 2A0F9505
REM COMMENT "ExactAudioCopy v0.99pb4"
PERFORMER "Vinny Golia"
TITLE "Dante No Longer Repents"
FILE "Vinny Golia - Dante No Longer Repents.flac" WAVE
TRACK 01 AUDIO
TITLE "Hat of Anger (for John Candy)"
PERFORMER "Vinny Golia"
FLAGS DCP
INDEX 01 00:00:00
TRACK 02 AUDIO
TITLE "Inside the Rail"
PERFORMER "Vinny Golia"
FLAGS DCP
INDEX 01 12:10:49
TRACK 03 AUDIO
TITLE "Liaisons in Cairo"
PERFORMER "Vinny Golia"
FLAGS DCP
INDEX 00 26:38:09
INDEX 01 26:41:54
TRACK 04 AUDIO
TITLE "Cents of Wonder"
PERFORMER "Vinny Golia"
FLAGS DCP
INDEX 01 38:49:33
TRACK 05 AUDIO
TITLE "Endo Crededo"
PERFORMER "Vinny Golia"
FLAGS DCP
INDEX 00 56:35:43
INDEX 01 56:40:12
 
AMG Review
One of the finest groups that multi-reedist Vinny Golia has ever led is the quintet that is featured on Dante No Longer Repents, and other recordings from the period. With this lineup, Golia's music can range from free bop to moody sound explorations, swinging hard in its own fashion. Golia, who plays six different instruments on this set, works particularly well with trumpeter Rob Blakeslee while the rhythm section is continually active; bassist Michael Bisio is especially impressive. The music is episodic yet mostly continuous, with one lengthy selection flowing into the other. Golia has an opportunity to be heard at length on all six horns, being most impressive on soprano and bass clarinet, although he does display a huge tone on baritone during the first part of "Cents Of Wonder." Although forbidding in spots, this is one of Vinny Golia's more accessible and rewarding releases. ~ Scott Yanow, AMG
 
Back
На замену релизу со статусом # сомнительно ( no CUE, no Log )
По всем вопросам пишите личное сообщение пользователю M0p94ok.
07:53
195
Нет комментариев. Ваш будет первым!