Вы используете незарегистрированную версию компонента "Вкладки"!

Поиск

(free jazz, avant-garde) Foxes Fox (Evan Parker, Steve Beresford, John Edwards, Louis Moholo, Kenny Wheeler) - Live at the Vortex 2012, FLAC (tracks+.cue), lossless

(free jazz, avant-garde) Foxes Fox (Evan Parker, Steve Beresford, John Edwards, Louis Moholo, Kenny Wheeler) - Live at the Vortex 2012, FLAC (tracks+.cue), lossless
Треклист:


Evan Parker, Steve Beresford, John Edwards, Louis Moholo, Kenny Wheeler
Foxes Fox - Live at the Vortex 2012
Жанр: free jazz, avant-garde
Год выпуска: 2012
Издатель (лейбл): psi / 12.01
Формат: FLAC (tracks+.cue)
Битрейт аудио: lossless
Продолжительность 1`18`56
Источник: what.cd, 6060842
Evan Parker - tenor saxophone
Steve Beresford - piano
John Edwards - double bass
Louis Moholo-Moholo - percussion
Kenny Wheeler - trumpet, flugelhorn
A 2006 concert recording at London's legendary Vortex by EVAN PARKER (tenor saxophone), STEVE BERESFORD (piano), JOHN EDWARDS (double bass) and LOUIS MOHOLO-MOHOLO (percussion) with special guest KENNY WHEELER (trumpet & flügelhorn) joining the band for the second set.

tracks
1. Foxes Set 1 38:39
2. Foxes Set 2 30:32
3. Foxes Set 3 9:44


 
.log
X Lossless Decoder version 20130720 (144.0)
XLD extraction logfile from 2013-08-12 20:02:53 +0400
Foxes Fox / Live at the Vortex
Used drive : HL-DT-ST DVDRW GX30N (revision RP09)
Media type : Pressed CD
Ripper mode : XLD Secure Ripper
Disable audio cache : OK for the drive with a cache less than 1375KiB
Make use of C2 pointers : NO
Read offset correction : 6
Max retry count : 100
Gap status : Analyzed, Appended (except HTOA)
TOC of the extracted CD
Track | Start | Length | Start sector | End sector
---------------------------------------------------------
1 | 00:00:00 | 38:39:20 | 0 | 173944
2 | 38:39:20 | 30:32:35 | 173945 | 311379
3 | 69:11:55 | 09:44:20 | 311380 | 355199
AccurateRip Summary
Disc not found in AccurateRip DB.
All Tracks
Album gain : -5.08 dB
Peak : 0.966614
Statistics
Read error : 0
Jitter error (maybe fixed) : 0
Retry sector count : 0
Damaged sector count : 0
Track 01
Filename : /Users/anch/Music/FLAC/Foxes Fox - 2012 - Live at the Vortex [MP3 320]/01 - Foxes Set 1.mp3
/Users/anch/Music/FLAC/Foxes Fox - 2012 - Live at the Vortex [MP3 V0]/01 - Foxes Set 1.mp3
/Users/anch/Music/FLAC/Foxes Fox - 2012 - Live at the Vortex [FLAC]/01 - Foxes Set 1.flac
Pre-gap length : 00:02:00
Track gain : -3.56 dB
Peak : 0.966309
CRC32 hash (test run) : E440CBE3
CRC32 hash : E440CBE3
CRC32 hash (skip zero) : 0F5E8718
AccurateRip v1 signature : 398B1DE3
AccurateRip v2 signature : F5BD7190
->Track not present in AccurateRip database.
Statistics
Read error : 0
Jitter error (maybe fixed) : 0
Retry sector count : 0
Damaged sector count : 0
Track 02
Filename : /Users/anch/Music/FLAC/Foxes Fox - 2012 - Live at the Vortex [MP3 320]/02 - Foxes Set 2.mp3
/Users/anch/Music/FLAC/Foxes Fox - 2012 - Live at the Vortex [MP3 V0]/02 - Foxes Set 2.mp3
/Users/anch/Music/FLAC/Foxes Fox - 2012 - Live at the Vortex [FLAC]/02 - Foxes Set 2.flac
Pre-gap length : 00:07:67
Track gain : -6.01 dB
Peak : 0.966614
CRC32 hash (test run) : 660A6A92
CRC32 hash : 660A6A92
CRC32 hash (skip zero) : 10A67149
AccurateRip v1 signature : 46E90929
AccurateRip v2 signature : 9518323D
->Track not present in AccurateRip database.
Statistics
Read error : 0
Jitter error (maybe fixed) : 0
Retry sector count : 0
Damaged sector count : 0
Track 03
Filename : /Users/anch/Music/FLAC/Foxes Fox - 2012 - Live at the Vortex [MP3 320]/03 - Foxes Set 3.mp3
/Users/anch/Music/FLAC/Foxes Fox - 2012 - Live at the Vortex [MP3 V0]/03 - Foxes Set 3.mp3
/Users/anch/Music/FLAC/Foxes Fox - 2012 - Live at the Vortex [FLAC]/03 - Foxes Set 3.flac
Pre-gap length : 00:04:60
Track gain : -4.63 dB
Peak : 0.966248
CRC32 hash (test run) : 2CFFF7AF
CRC32 hash : 2CFFF7AF
CRC32 hash (skip zero) : 2E6E0851
AccurateRip v1 signature : CC1E32A8
AccurateRip v2 signature : BB464247
->Track not present in AccurateRip database.
Statistics
Read error : 0
Jitter error (maybe fixed) : 0
Retry sector count : 0
Damaged sector count : 0
No errors occurred
End of status report
 
.cue
TITLE "Live at the Vortex"
PERFORMER "Foxes Fox"
REM GENRE "Free Jazz"
REM DATE "2012"
REM DISCID 17128003
REM REPLAYGAIN_ALBUM_GAIN -5.08 dB
REM REPLAYGAIN_ALBUM_PEAK 0.966614
FILE "01 - Foxes Set 1.flac" WAVE
TRACK 01 AUDIO
TITLE "Foxes Set 1"
PERFORMER "Foxes Fox"
REM REPLAYGAIN_TRACK_GAIN -3.56 dB
REM REPLAYGAIN_TRACK_PEAK 0.966309
INDEX 01 00:00:00
TRACK 02 AUDIO
TITLE "Foxes Set 2"
PERFORMER "Foxes Fox"
REM REPLAYGAIN_TRACK_GAIN -6.01 dB
REM REPLAYGAIN_TRACK_PEAK 0.966614
INDEX 00 38:31:28
FILE "02 - Foxes Set 2.flac" WAVE
INDEX 01 00:00:00
TRACK 03 AUDIO
TITLE "Foxes Set 3"
PERFORMER "Foxes Fox"
REM REPLAYGAIN_TRACK_GAIN -4.63 dB
REM REPLAYGAIN_TRACK_PEAK 0.966248
INDEX 00 30:27:50
FILE "03 - Foxes Set 3.flac" WAVE
INDEX 01 00:00:00

другие релизы
По всем вопросам пишите личное сообщение пользователю M0p94ok.
17:03
182
Нет комментариев. Ваш будет первым!