Вы используете незарегистрированную версию компонента "Вкладки"!

Поиск

(free jazz, avant-garde, ethnic ) Mazolewski Gonzalez Quintet - Shaman (2013), FLAC (tracks+.cue), lossless

(free jazz, avant-garde, ethnic ) Mazolewski Gonzalez Quintet - Shaman (2013), FLAC (tracks+.cue), lossless
Треклист:


Mazolewski Gonzalez Quintet - Shaman (2013)

Жанр: free jazz, avant-garde, ethnic
Год выпуска: 2013
Издатель (лейбл): ForTune / 0004
Формат: FLAC (tracks+.cue)
Битрейт аудио: lossless
Продолжительность 59`15
Источник: what.cd, kivius
Dennis González - trumpet, cornet, mouth percussion, voices
Joanna Duda - piano
Marek Pospieszalski - tenor saxophone, alto clarinet
Wojtek Mazolewski - double bass, voices
Jerzy Rogiewicz - drums, percussion

tracks
1. Suite
2. Astigmatic
3. The Matter at Hand
4. Sztandar
5. Hymn for Julius Hemphill
6. Pushing the Car


 
.log
Exact Audio Copy V1.0 beta 3 from 29. August 2011
EAC extraction logfile from 15. August 2013, 1:52
Mazolewski González Quintet / Shaman
Used drive : TSSTcorpCDDVDW SE-208DB Adapter: 2 ID: 0
Read mode : Secure
Utilize accurate stream : Yes
Defeat audio cache : Yes
Make use of C2 pointers : No
Read offset correction : 6
Overread into Lead-In and Lead-Out : No
Fill up missing offset samples with silence : Yes
Delete leading and trailing silent blocks : No
Null samples used in CRC calculations : Yes
Used interface : Native Win32 interface for Win NT & 2000
Gap handling : Appended to previous track
Used output format : User Defined Encoder
Selected bitrate : 1024 kBit/s
Quality : High
Add ID3 tag : No
Command line compressor : C:\Program Files (x86)\Exact Audio Copy\FLAC\FLAC.EXE
Additional command line options : -8 -V -T "ARTIST=%artist%" -T "TITLE=%title%" -T "ALBUM=%albumtitle%" -T "DATE=%year%" -T "TRACKNUMBER=%tracknr%" -T "GENRE=%genre%" -T "PERFORMER=%albuminterpret%" -T "COMPOSER=%composer%" %haslyrics%--tag-from-file=LYRICS="%lyricsfile%"%haslyrics% -T "ALBUMARTIST=%albumartist%" -T "DISCNUMBER=%cdnumber%" -T "TOTALDISCS=%totalcds%" -T "TOTALTRACKS=%numtracks%" -T "COMMENT=%comment%" %source% -o %dest%
TOC of the extracted CD
Track | Start | Length | Start sector | End sector
---------------------------------------------------------
1 | 0:00.00 | 9:43.00 | 0 | 43724
2 | 9:43.00 | 11:19.00 | 43725 | 94649
3 | 21:02.00 | 11:48.00 | 94650 | 147749
4 | 32:50.00 | 8:13.00 | 147750 | 184724
5 | 41:03.00 | 10:18.00 | 184725 | 231074
6 | 51:21.00 | 7:54.00 | 231075 | 266624
Track 1
Filename W:\_MUSIC ALL\Mazolewski Gonzalez Quintet - Shaman (2013) [FLAC]\01. Suite.wav
Pre-gap length 0:00:02.00
Peak level 67.0 %
Extraction speed 2.8 X
Track quality 99.9 %
Test CRC 86E9B187
Copy CRC 86E9B187
Track not present in AccurateRip database
Copy OK
Track 2
Filename W:\_MUSIC ALL\Mazolewski Gonzalez Quintet - Shaman (2013) [FLAC]\02. Astigmatic.wav
Peak level 67.4 %
Extraction speed 3.8 X
Track quality 100.0 %
Test CRC 48B20D1B
Copy CRC 48B20D1B
Track not present in AccurateRip database
Copy OK
Track 3
Filename W:\_MUSIC ALL\Mazolewski Gonzalez Quintet - Shaman (2013) [FLAC]\03. The Matter at Hand.wav
Peak level 69.8 %
Extraction speed 4.4 X
Track quality 100.0 %
Test CRC B5ED0C20
Copy CRC B5ED0C20
Track not present in AccurateRip database
Copy OK
Track 4
Filename W:\_MUSIC ALL\Mazolewski Gonzalez Quintet - Shaman (2013) [FLAC]\04. Sztandar.wav
Peak level 65.1 %
Extraction speed 4.1 X
Track quality 99.9 %
Test CRC 17BDBE9A
Copy CRC 17BDBE9A
Track not present in AccurateRip database
Copy OK
Track 5
Filename W:\_MUSIC ALL\Mazolewski Gonzalez Quintet - Shaman (2013) [FLAC]\05. Hymn for Julius Hemphill.wav
Peak level 66.8 %
Extraction speed 5.1 X
Track quality 100.0 %
Test CRC 921C40A5
Copy CRC 921C40A5
Track not present in AccurateRip database
Copy OK
Track 6
Filename W:\_MUSIC ALL\Mazolewski Gonzalez Quintet - Shaman (2013) [FLAC]\06. Pushing the Car.wav
Peak level 65.0 %
Extraction speed 5.3 X
Track quality 100.0 %
Test CRC 0BD987A1
Copy CRC 0BD987A1
Track not present in AccurateRip database
Copy OK
None of the tracks are present in the AccurateRip database
No errors occurred
End of status report
---- CUETools DB Plugin V2.1.3
[CTDB TOCID: T0gAGcLb5_mU25mzhivlK2EscI8-] found, Submit result: T0gAGcLb5_mU25mzhivlK2EscI8- has been confirmed
[5f7c6b50] (1/1) Accurately ripped
==== Log checksum 655D6ECDD55152FD93B0FB12BFA24906E5FF7E87AE8218E8D8E8F21EB8EBCE14 ====
 
.cue
REM GENRE Jazz
REM DATE 2013
REM DISCID 530DE306
REM COMMENT "ExactAudioCopy v1.0b3"
PERFORMER "Mazolewski Gonzalez Quintet"
TITLE "Shaman"
FILE "01. Suite.wav" WAVE
TRACK 01 AUDIO
TITLE "Suite"
PERFORMER "Mazolewski Gonzalez Quintet"
ISRC PLH161300014
INDEX 01 00:00:00
FILE "02. Astigmatic.wav" WAVE
TRACK 02 AUDIO
TITLE "Astigmatic"
PERFORMER "Mazolewski Gonzalez Quintet"
ISRC PLH161300015
INDEX 01 00:00:00
FILE "03. The Matter at Hand.wav" WAVE
TRACK 03 AUDIO
TITLE "The Matter at Hand"
PERFORMER "Mazolewski Gonzalez Quintet"
ISRC PLH161300016
INDEX 01 00:00:00
FILE "04. Sztandar.wav" WAVE
TRACK 04 AUDIO
TITLE "Sztandar"
PERFORMER "Mazolewski Gonzalez Quintet"
ISRC PLH161300017
INDEX 01 00:00:00
FILE "05. Hymn for Julius Hemphill.wav" WAVE
TRACK 05 AUDIO
TITLE "Hymn for Julius Hemphill"
PERFORMER "Mazolewski Gonzalez Quintet"
ISRC PLH161300018
INDEX 01 00:00:00
FILE "06. Pushing the Car.wav" WAVE
TRACK 06 AUDIO
TITLE "Pushing the Car"
PERFORMER "Mazolewski Gonzalez Quintet"
ISRC PLH161300019
INDEX 01 00:00:00
 
.accurip
[CUETools log; Date: 17/08/13 00:13:18; Version: 2.1.4]
[CTDB TOCID: T0gAGcLb5_mU25mzhivlK2EscI8-] found.
Track | CTDB Status
1 | (2/2) Accurately ripped
2 | (2/2) Accurately ripped
3 | (2/2) Accurately ripped
4 | (2/2) Accurately ripped
5 | (2/2) Accurately ripped
6 | (2/2) Accurately ripped
[AccurateRip ID: 000ec766-004e69a3-530de306] disk not present in database.
Track Peak [ CRC32 ] [W/O NULL] [ LOG ]
-- 69.8 [DC18F88F] [0159F126]
01 67.0 [86E9B187] [D97F664F] CRC32
02 67.4 [48B20D1B] [1826300E] CRC32
03 69.8 [B5ED0C20] [559FC22E] CRC32
04 65.1 [17BDBE9A] [0D42FE5B] CRC32
05 66.8 [921C40A5] [F10BB282] CRC32
06 65.0 [0BD987A1] [440B8FB1] CRC32

другие релизы
По всем вопросам пишите личное сообщение пользователю M0p94ok.
17:07
164
Нет комментариев. Ваш будет первым!